BitTorrentTracker PerecTracker.org
BitTorrentTracker PerecTracker.org
    
Регистрация  ·  Вход
 
 · 
Забыли пароль?

  • Маленький принц / The Little Prince / Le Petit Prince (Марк Осборн / Mark Osborne) [2015, Франция, Канада, мультфильм, фэнтези, приключения, BDRip-AVC] Dub + Original Eng + Sub Rus, Eng

    Ответить на тему
     
    Автор Сообщение

    Flirldrerve

    Создавать темы 22-Июн-2016 02:51

           

    [Цитировать]

    Маленький принц / The Little Prince / Le Petit Prince
    Страна: Франция, Канада
    Жанр: мультфильм, фэнтези, приключения
    Продолжительность: 01:46:34
    Год выпуска: 2015
    Перевод: Профессиональный (дублированный)
    Русские субтитры: есть--Режиссёр: Марк Осборн / Mark Osborne--Роли озвучивали: Джефф Бриджес, Рэйчел МакАдамс, Пол Радд, Марион Котийяр, Джеймс Франко, Бенисио Дель Торо, Рики Джервэйс, Бад Корт, Пол Джаматти, Райли Осборн, Альберт Брукс, Маккензи Фой, Жаки Барнбрук, Марсель Жани, Венсан Кассель, Флоренс Форести...--Роли дублировали: Сергей Гармаш, Екатерина Климова, Александр Олешко, Чулпан Хаматова, Константин Хабенский, Игорь Костолевский, Андрей Леонов, Матвей Некрасов, Сергей Чихачев, Ульяна Иващенко..--Описание: Мир невозможен без фантазии и приключений. По крайней мере в это верит добродушный старик авиатор, по соседству с которым недавно поселилась одна очень педантичная мама со своей прилежной дочкой. Жизнь девочки подчинена строгому учебному плану, в котором время на друзей предусмотрено только следующим летом. Однако этот тщательно выстроенный план трещит по швам, когда в жизнь девочки врывается странный сосед с его невероятными рассказами о Маленьком Принце и далеких звездах. Осталось только починить самолет, и в путь! Так начинается большое путешествие девочки — полное опасностей, волшебства, юмора и настоящей дружбы.--Доп. информация: | IMDB | КиноПоиск | Сэмпл |

    --Качество: BDRip-AVC
    Формат: MKV
    Видео: AVC, 744x316, (2.35:1), 854 kbps, 23.976 fps, 0.152 bit/pixel
    Аудио 1: AАС-HE, 48.0 KHz, 64 Kbps, 2 channels
    Аудио 2: AАС-HE, 48.0 KHz, 64 Kbps, 2 channels
    Субтитры: русские, английские, французские

    Скриншоты

    Подробные технические данные

    x264

    raw [info]: 744x316p 1:1 @ 24000/1001 fps (cfr)
    x264 [info]: using SAR=1/1
    x264 [info]: using cpu capabilities: MMX2 SSE2Fast SSSE3 SSE4.2 AVX
    x264 [info]: profile High, level 3.1
    x264 [info]: frame I:1418 Avg QP:13.61 size: 40824
    x264 [info]: frame P:36330 Avg QP:16.92 size: 9768
    x264 [info]: frame B:115563 Avg QP:19.19 size: 2335
    x264 [info]: consecutive B-frames: 2.4% 3.5% 5.9% 47.9% 14.1% 12.8% 2.9% 6.1% 1.7% 1.1% 0.4% 0.5% 0.2% 0.5%
    x264 [info]: mb I I16..4: 9.5% 55.2% 35.2%
    x264 [info]: mb P I16..4: 1.3% 5.7% 1.8% P16..4: 38.1% 17.3% 19.2% 1.5% 0.8% skip:14.3%
    x264 [info]: mb B I16..4: 0.1% 0.4% 0.2% B16..8: 30.4% 8.9% 2.9% direct: 4.2% skip:53.0% L0:44.4% L1:42.0% BI:13.6%
    x264 [info]: 8x8 transform intra:61.1% inter:41.7%
    x264 [info]: direct mvs spatial:94.2% temporal:5.8%
    x264 [info]: coded y,uvDC,uvAC intra: 75.4% 74.6% 61.9% inter: 13.8% 13.3% 9.1%
    x264 [info]: i16 v,h,dc,p: 30% 19% 12% 39%
    x264 [info]: i8 v,h,dc,ddl,ddr,vr,hd,vl,hu: 14% 16% 15% 7% 9% 9% 10% 9% 12%
    x264 [info]: i4 v,h,dc,ddl,ddr,vr,hd,vl,hu: 14% 14% 7% 9% 13% 11% 12% 10% 12%
    x264 [info]: i8c dc,h,v,p: 42% 30% 17% 10%
    x264 [info]: Weighted P-Frames: Y:5.9% UV:3.5%
    x264 [info]: ref P L0: 54.9% 8.9% 12.7% 6.0% 4.2% 3.3% 2.8% 1.5% 1.3% 1.1% 0.9% 0.8% 0.6% 0.6% 0.4% 0.0%
    x264 [info]: ref B L0: 69.2% 14.1% 6.4% 2.9% 2.0% 1.5% 1.2% 0.7% 0.5% 0.4% 0.4% 0.3% 0.2% 0.1%
    x264 [info]: ref B L1: 93.9% 6.1%
    x264 [info]: kb/s:853.97
    General
    Unique ID : 173841847909063260995514640494218595386 (0x82C8B8D81C0138B5A1C87A79601A4C3A)
    Complete name : The Little Prince (2015).mkv
    Format : Matroska
    Format version : Version 4 / Version 2
    File size : 749 MiB
    Duration : 1h 46mn
    Overall bit rate : 982 Kbps
    Movie name : Маленький принц / The Little Prince / Le Petit Prince (2015)
    Encoded date : UTC 2016-06-21 19:26:59
    Writing application : mkvmerge v8.1.0 ('Psychedelic Postcard') 64bit
    Writing library : libebml v1.3.1 + libmatroska v1.4.2
    Cover : Yes
    Attachments : cover.jpg
    Video
    ID : 1
    Format : AVC
    Format/Info : Advanced Video Codec
    Format profile : High@L3.1
    Format settings, CABAC : Yes
    Format settings, ReFrames : 15 frames
    Codec ID : V_MPEG4/ISO/AVC
    Duration : 1h 46mn
    Bit rate : 854 Kbps
    Width : 744 pixels
    Height : 316 pixels
    Display aspect ratio : 2.35:1
    Frame rate mode : Constant
    Frame rate : 23.976 (24000/1001) fps
    Color space : YUV
    Chroma subsampling : 4:2:0
    Bit depth : 8 bits
    Scan type : Progressive
    Bits/(Pixel*Frame) : 0.152
    Stream size : 651 MiB (87%)
    Title : The Little Prince (2015) By optik.1557
    Writing library : x264 core 148 r2692kMod 64f4e24
    Encoding settings : cabac=1 / ref=15 / deblock=1:-2:-1 / analyse=0x3:0x133 / me=umh / subme=10 / psy=1 / fade_compensate=0.00 / psy_rd=1.05:0.03 / mixed_ref=1 / me_range=48 / chroma_me=1 / trellis=2 / 8x8dct=1 / cqm=0 / deadzone=21,11 / fast_pskip=0 / chroma_qp_offset=-3 / threads=6 / lookahead_threads=1 / sliced_threads=0 / nr=0 / decimate=0 / interlaced=0 / bluray_compat=0 / constrained_intra=0 / fgo=0 / bframes=13 / b_pyramid=2 / b_adapt=2 / b_bias=0 / direct=3 / weightb=1 / open_gop=0 / weightp=2 / keyint=250 / keyint_min=23 / scenecut=40 / intra_refresh=0 / rc_lookahead=60 / rc=2pass / mbtree=0 / bitrate=854 / ratetol=1.0 / qcomp=0.60 / qpmin=0 / qpmax=69 / qpstep=4 / cplxblur=20.0 / qblur=0.5 / vbv_maxrate=14000 / vbv_bufsize=14000 / nal_hrd=none / filler=0 / ip_ratio=1.40 / pb_ratio=1.30 / aq=2:0.90
    Language : English
    Default : Yes
    Forced : No
    Audio #1
    ID : 2
    Format : AAC
    Format/Info : Advanced Audio Codec
    Format profile : HE-AAC / LC
    Codec ID : A_AAC
    Duration : 1h 46mn
    Bit rate : 62.7 Kbps
    Channel(s) : 2 channels
    Channel positions : Front: L R
    Sampling rate : 48.0 KHz / 24.0 KHz
    Frame rate : 23.438 fps (1024 spf)
    Compression mode : Lossy
    Stream size : 47.8 MiB (6%)
    Title : Дубляж. 64 Kbps
    Language : Russian
    Default : Yes
    Forced : No
    Audio #2
    ID : 3
    Format : AAC
    Format/Info : Advanced Audio Codec
    Format profile : HE-AAC / LC
    Codec ID : A_AAC
    Duration : 1h 46mn
    Bit rate : 62.7 Kbps
    Channel(s) : 2 channels
    Channel positions : Front: L R
    Sampling rate : 48.0 KHz / 24.0 KHz
    Frame rate : 23.438 fps (1024 spf)
    Compression mode : Lossy
    Stream size : 47.8 MiB (6%)
    Title : Original. 64 Kbps
    Language : English
    Default : No
    Forced : No
    Text #1
    ID : 4
    Format : UTF-8
    Codec ID : S_TEXT/UTF8
    Codec ID/Info : UTF-8 Plain Text
    Duration : 1h 35mn
    Bit rate : 0 bps
    Count of elements : 13
    Stream size : 521 Bytes (0%)
    Title : Forced
    Language : Russian
    Default : Yes
    Forced : No
    Text #2
    ID : 5
    Format : UTF-8
    Codec ID : S_TEXT/UTF8
    Codec ID/Info : UTF-8 Plain Text
    Duration : 1h 39mn
    Bit rate : 66 bps
    Count of elements : 1036
    Stream size : 49.0 KiB (0%)
    Language : Russian
    Default : No
    Forced : No
    Text #3
    ID : 6
    Format : UTF-8
    Codec ID : S_TEXT/UTF8
    Codec ID/Info : UTF-8 Plain Text
    Duration : 1h 35mn
    Bit rate : 0 bps
    Count of elements : 11
    Stream size : 228 Bytes (0%)
    Title : Forced
    Language : English
    Default : No
    Forced : No
    Text #4
    ID : 7
    Format : UTF-8
    Codec ID : S_TEXT/UTF8
    Codec ID/Info : UTF-8 Plain Text
    Duration : 1h 37mn
    Bit rate : 40 bps
    Count of elements : 1037
    Stream size : 28.9 KiB (0%)
    Language : English
    Default : No
    Forced : No
    Text #5
    ID : 8
    Format : UTF-8
    Codec ID : S_TEXT/UTF8
    Codec ID/Info : UTF-8 Plain Text
    Duration : 1h 40mn
    Bit rate : 46 bps
    Count of elements : 1154
    Stream size : 33.7 KiB (0%)
    Title : SDH
    Language : English
    Default : No
    Forced : No
    Text #6
    ID : 9
    Format : UTF-8
    Codec ID : S_TEXT/UTF8
    Codec ID/Info : UTF-8 Plain Text
    Duration : 1h 45mn
    Bit rate : 47 bps
    Count of elements : 1135
    Stream size : 37.0 KiB (0%)
    Language : French
    Default : No
    Forced : No
    Menu
    00:00:00.000 : en:00:00:00.000
    00:06:11.871 : en:00:06:11.871
    00:16:06.966 : en:00:16:06.966
    00:22:35.854 : en:00:22:35.854
    00:32:19.771 : en:00:32:19.771
    00:38:05.366 : en:00:38:05.366
    00:43:55.675 : en:00:43:55.675
    00:49:36.849 : en:00:49:36.849
    00:57:30.864 : en:00:57:30.864
    01:08:33.234 : en:01:08:33.234
    01:14:06.359 : en:01:14:06.359
    01:20:31.744 : en:01:20:31.744
    01:27:21.945 : en:01:27:21.945
    01:39:06.023 : en:01:39:06.023
    Скачать .torrent

    Скачать торрент-файл бесплатно и на максимальной скорости!

    Как скачивать? · Что такое торрент? · Рейтинг и ограничения

    !ВНИМАНИЕ!
    Сайт не распространяет и не хранит электронные версии произведений, а занимается лишь лишь предоставлением доступа к создаваемому пользователями каталогу ссылок на торрент-файлы, которые содержат только списки хеш-сумм, убедительная просьба с жалобами обращаться напрямую к пользователю. Файлы для обмена на трекере предоставлены пользователями сайта, и администрация не несёт ответственности за их содержание. Просьба не заливать файлы, защищенные авторскими правами, а также файлы нелегального содержания!


    _________________
    [Профиль] [ЛС]
    Показать сообщения:    
    Ответить на тему

    Текущее время: Сегодня, в 20:18

    Часовой пояс: GMT + 2



    Вы не можете начинать темы
    Вы не можете отвечать на сообщения
    Вы не можете редактировать свои сообщения
    Вы не можете удалять свои сообщения
    Вы не можете голосовать в опросах
    Вы не можете прикреплять файлы к сообщениям
    Вы не можете скачивать файлы