BitTorrentTracker PerecTracker.org
BitTorrentTracker PerecTracker.org
    
Регистрация  ·  Вход
 
 · 
Забыли пароль?

  • Лунный флаг / Atrapa la bandera (Энрике Гато / Enrique Gato) [2015, Испания, Мультфильм, комедия, приключения, HDRip] Dub

    Ответить на тему
     
    Автор Сообщение

    Flirldrerve

    Создавать темы 21-Июн-2016 18:08

           

    [Цитировать]

    Лунный флаг / Atrapa la bandera
    Страна: Испания
    Жанр: Mультфильм, комедия, приключения
    Продолжительность: 01:34:38
    Год выпуска: 2015
    Перевод: Профессиональный (дублированный) | iTunes
    Русские субтитры: нет
    Режиссёр: Энрике Гато / Enrique Gato
    Роли озвучивали: Дэни Ровира, Мишель Хеннер, Карме Калвелл, Хавьер Балас, Камилло Гарсия, Тони Мора, Марта Барбара, Фернандо Гарсия Кабрера, Ксавьер Касан, Ориол Тарраго
    Описание: 12-летний Майк вместе со своими друзьями пытается спасти Луну от захвата злобным миллиардером Карсоном. Но для этого надо всего лишь… полететь в космос. Удастся ли обыкновенным подросткам пробраться на космическую базу, прилуниться и победить коварного злодея? Для этого понадобится помощь друзей, верной домашней ящерицы и родного деда. Большое космическое приключение, объединившее всю семью, начинается!
    Семпл: http://multi-up.com/1106806
    Качество: HDRip (Исходник: Capture the Flag (2015) BDRip 1080p от New-Team)
    Формат: AVI
    Видео: 688x288 (2.39:1), 23.976 fps, XviD build 73 ~966 kbps avg, 0.20 bit/pixel
    Аудио: 48 kHz, MPEG Layer 3, 2 ch, ~128.00 kbps avg - iTunes
    Субтитры: отсутствуют

    Подробные технические данные

    ОбщееПолное имя : D:\загрузки\Capture.the.Flag.2015.HDRip.745MB.aviФормат : AVIФормат/Информация : Audio Video InterleaveРазмер файла : 745 МбайтПродолжительность : 1 ч. 34 м.Общий поток : 1100 Кбит/сек
    ВидеоИдентификатор : 0Формат : MPEG-4 VisualПрофиль формата : Advanced Simple@L5Параметр BVOP формата : 1Параметр QPel формата : НетПараметр GMC формата : Без точки переходаПараметр матрицы формата : ВыборочнаяИдентификатор кодека : XVIDИдентификатор кодека/Подсказка : XviDПродолжительность : 1 ч. 34 м.Битрейт : 966 Кбит/секШирина : 688 пикселейВысота : 288 пикселейСоотношение сторон : 2,40:1Частота кадров : 23,976 (24000/1001) кадра/секЦветовое пространство : YUVСубдискретизация насыщенности : 4:2:0Битовая глубина : 8 битТип развёртки : ПрогрессивнаяМетод сжатия : С потерямиБит/(Пиксели*Кадры) : 0.203Размер потока : 654 Мбайт (88%)Библиотека кодирования : XviD 73
    АудиоИдентификатор : 1Формат : MPEG AudioВерсия формата : Version 1Профиль формата : Layer 3Режим : Joint stereoРасширение режима : MS StereoИдентификатор кодека : 55Идентификатор кодека/Подсказка : MP3Продолжительность : 1 ч. 34 м.Вид битрейта : ПостоянныйБитрейт : 128 Кбит/секКаналы : 2 каналаЧастота : 48,0 КГцМетод сжатия : С потерямиРазмер потока : 86,6 Мбайт (12%)Выравнивание : Соединение по промежуткамПродолжительность промежутка : 167 мс. (4,00 видеокадра)Время предзагрузки промежутка : 216 мс.Заголовок : iTunesБиблиотека кодирования : LAME3.99rНастройки программы : -m j -V 4 -q 2 -lowpass 17 -b 128

    Скриншоты

    Скачать .torrent

    Скачать торрент-файл бесплатно и на максимальной скорости!

    Как скачивать? · Что такое торрент? · Рейтинг и ограничения

    !ВНИМАНИЕ!
    Сайт не распространяет и не хранит электронные версии произведений, а занимается лишь лишь предоставлением доступа к создаваемому пользователями каталогу ссылок на торрент-файлы, которые содержат только списки хеш-сумм, убедительная просьба с жалобами обращаться напрямую к пользователю. Файлы для обмена на трекере предоставлены пользователями сайта, и администрация не несёт ответственности за их содержание. Просьба не заливать файлы, защищенные авторскими правами, а также файлы нелегального содержания!


    _________________
    [Профиль] [ЛС]
    Показать сообщения:    
    Ответить на тему

    Текущее время: Сегодня, в 13:00

    Часовой пояс: GMT + 2



    Вы не можете начинать темы
    Вы не можете отвечать на сообщения
    Вы не можете редактировать свои сообщения
    Вы не можете удалять свои сообщения
    Вы не можете голосовать в опросах
    Вы не можете прикреплять файлы к сообщениям
    Вы не можете скачивать файлы