BitTorrentTracker PerecTracker.org
BitTorrentTracker PerecTracker.org
    
Регистрация  ·  Вход
 
 · 
Забыли пароль?

  • Мобильник / Cell (Тод «Кип» Уильямс / Tod «Kip» Williams ) [2016, США, Ужасы, фантастика, триллер, WEB-DL, HD (720p)] VO + Original + sub (rus, eng)

    Ответить на тему
     
    Автор Сообщение

    rechyn

    Создавать темы 21-Июн-2016 18:08

           

    [Цитировать]

    Мобильник / Cell
    «When everyone is connected no one is safe»
    4.886 / 10 4.50 / 10
    -Год выпуска: 2016
    Страна: США
    Жанр: Ужасы, фантастика, триллер
    Продолжительность: 01:38:03
    Перевод: Одноголосый закадровый (А. Матвеев)
    Оригинальная аудиодорожка: Есть
    Cубтитры: Русские, Английские
    Режиссёр: Тод «Кип» Уильямс
    Сценарий: Стивен Кинг, Адам Аллека
    Продюсер: Майкл Бенаройя, Шара Кэй, Ричард Сэперстин
    Оператор: Майкл Симмондс
    Композитор: Марсело Зарвос
    Художник: Джон Коллинз, Алекс МакКэрролл, Лоррэйн Коппин
    Монтаж: Джейкоб Крэйкрофт
    В ролях: Сэмюэл Л. Джексон, Оуэн Тиг, Джон Кьюсак, Изабель Фурман, Стейси Кич, Алекс тер Авест, Джошуа Микель, Ллойд Кауфман, Элизабет Давидович, Катрин Дайер
    Мировая премьера: 12 декабря 2015
    Премьера (РФ): 7 июля 2016, «Наше Кино»
    Описание: Импульс, передаваемый с невероятной скоростью через сотовые телефоны, превращает людей в зомби. Художник Клайтон Ридделл становится свидетелем этого апокалипсиса, который начался со звонка мобильного телефона. Возглавив группу из нескольких выживших, он отправляется на поиски жены и сына. Возможно, еще есть шанс их спасти.-Качество исходника: WEB-DL 720p (HDClub)
    Качество: WEB-DL
    Тип: HD (720p)
    Контейнер: M4V
    Видео: H.264, 1280x530, 2.40:1, 4 066 Kbps, 23.976 fps
    Аудио 1: Русский/Одноголосый закадровый (А. Матвеев), AAC / 2.0 / 157 Kbps / 48.0 KHz
    Аудио 2: Английский/Оригинальная дорожка , AAC / 2.0 / 156 Kbps / 48.0 KHz
    Аудио 3: Русский/Одноголосый закадровый (А. Матвеев ), AC-3 / 5.1 / 448 Kbps / 48.0 KHz
    Аудио 4: Английский/Оригинальная дорожка , AC-3 / 5.1 / 384 Kbps / 48.0 KHz
    Субтитры 1: Русские полные (А. Матвеев)
    Субтитры 2: Английские полные
    -

    iTunes Meta Tags

    Sort Name: Cell
    XID: Apple:vendor_id:2016-738387
    contentID: 1115549770
    Screenwriters: Стивен Кинг, Адам Аллека
    Producers: Майкл Бенаройя, Шара Кэй, Ричард Сэперстин
    Director: Тод "Кип" Уильямс
    Cast: Сэмюэл Л. Джексон, Оуэн Тиг, Джон Кьюсак, Изабель Фурман, Стейси Кич, Алекс тер Авест, Джошуа Микель, Ллойд Кауфман, Элизабет Давидович, Катрин Дайер, Пётр Иващенко
    Studio: Lionsgate
    Rating: 5
    Long Description: Импульс, передаваемый с невероятной скоростью через сотовые телефоны, превращает людей в зомби. Художник Клайтон Ридделл становится свидетелем этого апокалипсиса, который начался со звонка мобильного телефона. Возглавив группу из нескольких выживших, он отправляется на поиски жены и сына. Возможно, еще есть шанс их спасти.
    Description: Импульс, передаваемый с невероятной скоростью через сотовые телефоны, превращает людей в зомби. Художник Клайтон Ридделл становится свидетелем этого апокалипсиса, который начался со звонка мобильного телефона. Возглавив группу из нескольких выживших, он отправляется на поиски жены и сына. Возможно, еще есть шанс их спасти.
    Release Date: 2015-12-12T08:00:00Z
    Genre: Thriller
    Artist: Tod Williams
    Name: Cell

    MediaInfo

    General
    Complete name : /Users/imac/HandBrake/Cell.WEB-DL.720p.m4v
    Format : MPEG-4
    Codec ID : M4V
    File size : 3.58 GiB
    Duration : 1h 38mn
    Overall bit rate mode : Variable
    Overall bit rate : 5 221 Kbps
    Movie name : Cell
    Performer : Tod Williams
    Director : Тод "Кип" Уильямс
    Actor : Сэмюэл Л. Джексон / Оуэн Тиг / Джон Кьюсак / Изабель Фурман / Стейси Кич / Алекс тер Авест / Джошуа Микель / Ллойд Кауфман / Элизабет Давидович / Катрин Дайер / Пётр Иващенко
    Screenplay by : Стивен Кинг / Адам Аллека
    Producer : Майкл Бенаройя / Шара Кэй / Ричард Сэперстин
    Production studio : Lionsgate
    Genre : Thriller
    ContentType : Short Film
    Description : Импульс, передаваемый с невероятной скоростью через сотовые телефоны, превращает людей в зомби. Художник Клайтон Ридделл становится свидетелем этого апокалипсиса, который начался со звонка мобильного телефона. Возглавив группу из нескольких выживших, он отправляется на поиски жены и сына. Возможно, еще есть шанс их спасти.
    Recorded date : UTC 2015-12-12 08:00:00
    Encoded date : UTC 2016-06-21 14:34:04
    Tagged date : UTC 2016-06-21 14:38:12
    Cover : Yes
    Rating : None
    Title/Sort : Cell
    LongDescription : Импульс, передаваемый с невероятной скоростью через сотовые телефоны, превращает людей в зомби. Художник Клайтон Ридделл становится свидетелем этого апокалипсиса, который начался со звонка мобильного телефона. Возглавив группу из нескольких выживших, он отправляется на поиски жены и сына. Возможно, еще есть шанс их спасти.
    HDVideo : Yes
    AppleStoreCatalogID : 1115549770
    Vendor : Apple:vendor_id:2016-738387
    ContentRating : mpaa|R|400|
    Video #1
    ID : 1
    Format : AVC
    Format/Info : Advanced Video Codec
    Format profile : Main@L3.1
    Format settings, CABAC : No
    Format settings, ReFrames : 2 frames
    Format settings, GOP : M=2, N=90
    Codec ID : avc1
    Codec ID/Info : Advanced Video Coding
    Duration : 1h 38mn
    Bit rate : 4 066 Kbps
    Width : 1 280 pixels
    Height : 530 pixels
    Display aspect ratio : 2.40:1
    Frame rate : 23.976 fps
    Color space : YUV
    Chroma subsampling : 4:2:0
    Bit depth : 8 bits
    Scan type : Progressive
    Bits/(Pixel*Frame) : 0.250
    Stream size : 2.78 GiB (78%)
    Title : Main Program
    Language : English
    Encoded date : UTC 2016-06-21 14:34:04
    Tagged date : UTC 2016-06-21 14:34:11
    Color range : Limited
    Color primaries : BT.709
    Transfer characteristics : BT.709
    Matrix coefficients : BT.709
    Video #2
    ID : 9
    Format : JPEG
    Codec ID : jpeg
    Duration : 1h 38mn
    Bit rate mode : Variable
    Bit rate : 504 bps
    Width : 640 pixels
    Height : 265 pixels
    Display aspect ratio : 2.40:1
    Frame rate mode : Variable
    Frame rate : 0.002 fps
    Minimum frame rate : 0.001 fps
    Maximum frame rate : 0.004 fps
    Color space : YUV
    Chroma subsampling : 4:2:0
    Bit depth : 8 bits
    Compression mode : Lossy
    Bits/(Pixel*Frame) : 1.486
    Stream size : 308 KiB (0%)
    Title : Chapter Images
    Language : English
    Encoded date : UTC 2016-06-21 14:34:15
    Tagged date : UTC 2016-06-21 14:34:16
    Audio #1
    ID : 2
    Format : AAC
    Format/Info : Advanced Audio Codec
    Format profile : LC
    Codec ID : 40
    Duration : 1h 38mn
    Bit rate mode : Variable
    Bit rate : 157 Kbps
    Maximum bit rate : 241 Kbps
    Channel(s) : 2 channels
    Channel positions : Front: L R
    Sampling rate : 48.0 KHz
    Compression mode : Lossy
    Stream size : 110 MiB (3%)
    Title : Russian Stereo
    Language : Russian
    Encoded date : UTC 2016-06-21 14:34:04
    Tagged date : UTC 2016-06-21 14:34:13
    Audio #2
    ID : 3
    Format : AAC
    Format/Info : Advanced Audio Codec
    Format profile : LC
    Codec ID : 40
    Duration : 1h 38mn
    Bit rate mode : Variable
    Bit rate : 156 Kbps
    Maximum bit rate : 231 Kbps
    Channel(s) : 2 channels
    Channel positions : Front: L R
    Sampling rate : 48.0 KHz
    Compression mode : Lossy
    Stream size : 110 MiB (3%)
    Title : English Stereo
    Language : English
    Encoded date : UTC 2016-06-21 14:34:04
    Tagged date : UTC 2016-06-21 14:34:13
    Audio #3
    ID : 4
    Format : AC-3
    Format/Info : Audio Coding 3
    Mode extension : CM (complete main)
    Format settings, Endianness : Big
    Codec ID : ac-3
    Duration : 1h 38mn
    Bit rate mode : Constant
    Bit rate : 448 Kbps
    Channel(s) : 6 channels
    Channel positions : Front: L C R, Side: L R, LFE
    Sampling rate : 48.0 KHz
    Bit depth : 16 bits
    Compression mode : Lossy
    Stream size : 314 MiB (9%)
    Title : Russian DD 5.1
    Language : Russian
    Encoded date : UTC 2016-06-21 14:34:04
    Tagged date : UTC 2016-06-21 14:34:11
    Audio #4
    ID : 5
    Format : AC-3
    Format/Info : Audio Coding 3
    Mode extension : CM (complete main)
    Format settings, Endianness : Big
    Codec ID : ac-3
    Duration : 1h 38mn
    Bit rate mode : Constant
    Bit rate : 384 Kbps
    Channel(s) : 6 channels
    Channel positions : Front: L C R, Side: L R, LFE
    Sampling rate : 48.0 KHz
    Bit depth : 16 bits
    Compression mode : Lossy
    Stream size : 269 MiB (7%)
    Title : English DD 5.1
    Language : English
    Encoded date : UTC 2016-06-21 14:34:04
    Tagged date : UTC 2016-06-21 14:34:11
    Text #1
    ID : 6
    Format : Timed Text
    Muxing mode : sbtl
    Codec ID : tx3g
    Duration : 1h 33mn
    Bit rate mode : Variable
    Bit rate : 67 bps
    Stream size : 46.4 KiB (0%)
    Title : Russian full
    Language : Russian
    Encoded date : UTC 2016-06-21 14:34:04
    Tagged date : UTC 2016-06-21 14:34:11
    Text #2
    ID : 7
    Format : Timed Text
    Muxing mode : sbtl
    Codec ID : tx3g
    Duration : 1h 37mn
    Bit rate mode : Variable
    Bit rate : 79 bps
    Stream size : 56.9 KiB (0%)
    Title : English full
    Language : English
    Encoded date : UTC 2016-06-21 14:34:04
    Tagged date : UTC 2016-06-21 14:34:11
    Menu #1
    00:00:00.000 : 1
    00:12:24.000 : 2
    00:22:43.000 : 3
    00:34:08.000 : 4
    00:43:14.000 : 5
    00:52:47.000 : 6
    01:03:32.000 : 7
    01:13:19.000 : 8
    01:23:58.000 : 9
    01:33:24.000 : 10
    Menu #2
    ID : 8
    Codec ID : text
    Duration : 1h 38mn
    Language : English
    Encoded date : UTC 2016-06-21 14:34:13
    Tagged date : UTC 2016-06-21 14:34:13
    00:00:00.000 : 1
    00:12:24.000 : 2
    00:22:43.000 : 3
    00:34:08.000 : 4
    00:43:14.000 : 5
    00:52:47.000 : 6
    01:03:32.000 : 7
    01:13:19.000 : 8
    01:23:58.000 : 9
    01:33:24.000 : 10
    Bit rate mode : VBR

    Скриншоты

    -

    Релиз подготовлен для просмотра на Apple TV, iPad, iPhone, iPod Touch.
    Для просмотра данного релиза на компьютере с ОС Windows рекомендуется использовать VLC media player
    Скачать .torrent

    Скачать торрент-файл бесплатно и на максимальной скорости!

    Как скачивать? · Что такое торрент? · Рейтинг и ограничения

    !ВНИМАНИЕ!
    Сайт не распространяет и не хранит электронные версии произведений, а занимается лишь лишь предоставлением доступа к создаваемому пользователями каталогу ссылок на торрент-файлы, которые содержат только списки хеш-сумм, убедительная просьба с жалобами обращаться напрямую к пользователю. Файлы для обмена на трекере предоставлены пользователями сайта, и администрация не несёт ответственности за их содержание. Просьба не заливать файлы, защищенные авторскими правами, а также файлы нелегального содержания!


    _________________
    [Профиль] [ЛС]
    Показать сообщения:    
    Ответить на тему

    Текущее время: Сегодня, в 10:28

    Часовой пояс: GMT + 2



    Вы не можете начинать темы
    Вы не можете отвечать на сообщения
    Вы не можете редактировать свои сообщения
    Вы не можете удалять свои сообщения
    Вы не можете голосовать в опросах
    Вы не можете прикреплять файлы к сообщениям
    Вы не можете скачивать файлы