BitTorrentTracker PerecTracker.org
BitTorrentTracker PerecTracker.org
    
Регистрация  ·  Вход
 
 · 
Забыли пароль?

  • Марсианин / The Martian (Ридли Скотт / Ridley Scott) [2015, США, Великобритания, фантастика, приключения, BDRip 1080p] [Расширенная версия] Dub + Sub Eng + Original Eng

    Ответить на тему
     
    Автор Сообщение

    Light

    Создавать темы 21-Июн-2016 05:45

           

    [Цитировать]

    Марсианин / The Martian / Расширенная версия [Extended Cut]
    Страна: США, Великобритания
    Студия: 20th Century Fox Film Corporation, Genre Films
    Жанр: Фантастика, приключения
    Год выпуска: 2015
    Продолжительность: 2:31:20
    Перевод: Профессиональный (дублированный)
    Cубтитры 1: русские (форсированные)
    Cубтитры 2: английские (полные)
    Оригинальная аудиодорожка: английский
    Режиссер: Ридли Скотт
    В ролях: Мэтт Дэймон, Джессика Честейн, Кристен Уиг, Кейт Мара, Майкл Пенья, Джефф Дэниэлс, Шон Бин, Маккензи Дэвис, Себастьян Стэн, Дональд Гловер, Чьюител Эджиофор, Наоми Скотт, Аксель Хенни, Джонатан Арис, Николетта Барабаш, и др.
    Описание: Марсианская миссия «Арес-3» в процессе работы была вынуждена экстренно покинуть планету из-за надвигающейся песчаной бури. Инженер и биолог Марк Уотни получил повреждение скафандра во время песчаной бури. Сотрудники миссии, посчитав его погибшим, эвакуировались с планеты, оставив Марка одного.
    Очнувшись, Уотни обнаруживает, что связь с Землёй отсутствует, но при этом полностью функционирует жилой модуль. Главный герой начинает искать способ продержаться на имеющихся запасах еды, витаминов, воды и воздуха ещё 4 года до прилёта следующей миссии «Арес-4».
    Доп. информация: расширенная версия длиннее театральной около 10 минут.
    Сэмпл: https://yadi.sk/i/Btix3MBfsbkmH
    Тип релиза: BDRip 1080p
    Контейнер: MKV
    Видео: MPEG-4 AVC Video 13500 Kbps 1920x800 / 23.976 fps / 2.40:1 / High Profile 4.1
    Аудио 1: Русский / DTS / 48 KHz / 5.1 ch / 768 Kbps (Дубляж, Blu-ray EUR + вставки двухголосого DVO "Omskbird records" )
    Аудио 2: Английский / DTS / 48 KHz / 5.1 ch / 1509 Kbps (Original)
    Аудио 3: Английский / AC3 / 48 KHz / 2.0 ch / 224 Kbps (Сommentary)

    MediaInfo

    Полное имя : Марсианин (The Martian)_Extended Cut_(Дубляж + вставки MVO)_BDRip 1080p_RuTracker.org.mkv
    Формат : Matroska
    Версия формата : Version 2
    Размер файла : 16,9 Гбайт
    Продолжительность : 2 ч. 31 м.
    Общий поток : 16,0 Мбит/сек
    Дата кодирования : UTC 2016-06-18 19:29:22
    Программа кодирования : mkvmerge v7.0.0 ('Where We Going') 32bit built on Jun 9 2014 15:08:34
    Библиотека кодирования : libebml v1.3.0 + libmatroska v1.4.1
    DURATION : 02:20:38.814000000
    NUMBER_OF_FRAMES : 61
    NUMBER_OF_BYTES : 3154
    _STATISTICS_WRITING_APP : mkvmerge v7.0.0 ('Where We Going') 32bit built on Jun 9 2014 15:08:34
    _STATISTICS_WRITING_DATE_UTC : 2016-06-18 19:29:22
    _STATISTICS_TAGS : BPS DURATION NUMBER_OF_FRAMES NUMBER_OF_BYTES
    Видео
    Идентификатор : 1
    Формат : AVC
    Формат/Информация : Advanced Video Codec
    Профиль формата : High@L4.1
    Параметр CABAC формата : Да
    Параметр ReFrames формата : 5 кадров
    Идентификатор кодека : V_MPEG4/ISO/AVC
    Продолжительность : 2 ч. 31 м.
    Битрейт : 13,5 Мбит/сек
    Ширина : 1920 пикселей
    Высота : 800 пикселей
    Соотношение сторон : 2,40:1
    Режим частоты кадров : Постоянный
    Частота кадров : 23,976 кадра/сек
    Цветовое пространство : YUV
    Субдискретизация насыщенности : 4:2:0
    Битовая глубина : 8 бит
    Тип развёртки : Прогрессивная
    Бит/(Пиксели*Кадры) : 0.367
    Размер потока : 13,9 Гбайт (82%)
    Заголовок : Марсианин (The Martian)_BDRip 1080p_RuTracker.org
    Библиотека кодирования : x264 core 125 r2208 d9d2288
    Настройки программы : cabac=1 / ref=5 / deblock=1:0:0 / analyse=0x3:0x113 / me=umh / subme=8 / psy=1 / psy_rd=1.00:0.10 / mixed_ref=1 / me_range=16 / chroma_me=1 / trellis=1 / 8x8dct=1 / cqm=0 / deadzone=21,11 / fast_pskip=1 / chroma_qp_offset=-3 / threads=12 / lookahead_threads=2 / sliced_threads=0 / nr=0 / decimate=1 / interlaced=0 / bluray_compat=0 / constrained_intra=0 / bframes=3 / b_pyramid=2 / b_adapt=2 / b_bias=0 / direct=3 / weightb=1 / open_gop=0 / weightp=2 / keyint=250 / keyint_min=23 / scenecut=40 / intra_refresh=0 / rc_lookahead=50 / rc=2pass / mbtree=1 / bitrate=13500 / ratetol=1.0 / qcomp=0.60 / qpmin=0 / qpmax=69 / qpstep=4 / cplxblur=20.0 / qblur=0.5 / ip_ratio=1.40 / aq=1:1.00
    Default : Да
    Forced : Нет
    Аудио #1
    Идентификатор : 2
    Формат : DTS
    Формат/Информация : Digital Theater Systems
    Режим : 16
    Параметр Endianness формата : Big
    Идентификатор кодека : A_DTS
    Продолжительность : 2 ч. 31 м.
    Вид битрейта : Постоянный
    Битрейт : 768 Кбит/сек
    Каналы : 6 каналов
    Расположение каналов : Front: L C R, Side: L R, LFE
    Частота : 48,0 КГц
    Битовая глубина : 24 бит
    Метод сжатия : С потерями
    Размер потока : 831 Мбайт (5%)
    Заголовок : Дубляж, Blu-ray EUR + вставки MVO "Omskbird records"
    Язык : Russian
    Default : Да
    Forced : Нет
    Аудио #2
    Идентификатор : 3
    Формат : DTS
    Формат/Информация : Digital Theater Systems
    Режим : 16
    Параметр Endianness формата : Big
    Идентификатор кодека : A_DTS
    Продолжительность : 2 ч. 31 м.
    Вид битрейта : Постоянный
    Битрейт : 1509 Кбит/сек
    Каналы : 6 каналов
    Расположение каналов : Front: L C R, Side: L R, LFE
    Частота : 48,0 КГц
    Битовая глубина : 24 бит
    Метод сжатия : С потерями
    Размер потока : 1,60 Гбайт (9%)
    Заголовок : Original
    Язык : English
    Default : Нет
    Forced : Нет
    Аудио #3
    Идентификатор : 4
    Формат : AC-3
    Формат/Информация : Audio Coding 3
    Расширение режима : CM (complete main)
    Параметр Endianness формата : Big
    Идентификатор кодека : A_AC3
    Продолжительность : 2 ч. 31 м.
    Вид битрейта : Постоянный
    Битрейт : 224 Кбит/сек
    Каналы : 2 канала
    Расположение каналов : Front: L R
    Частота : 48,0 КГц
    Битовая глубина : 16 бит
    Метод сжатия : С потерями
    Размер потока : 242 Мбайт (1%)
    Заголовок : Сommentary
    Язык : English
    Default : Нет
    Forced : Нет
    Текст #1
    Идентификатор : 5
    Формат : UTF-8
    Идентификатор кодека : S_TEXT/UTF8
    Идентификатор кодека/Информация : UTF-8 Plain Text
    Заголовок : Русские форсированные [Extended Cut]
    Язык : Russian
    Default : Да
    Forced : Нет
    Текст #2
    Идентификатор : 6
    Формат : UTF-8
    Идентификатор кодека : S_TEXT/UTF8
    Идентификатор кодека/Информация : UTF-8 Plain Text
    Заголовок : English
    Язык : English
    Default : Нет
    Forced : Нет
    Меню
    00:00:00.000 : en:
    00:03:22.284 : en:
    00:10:15.155 : en:
    00:15:24.590 : en:
    00:18:25.186 : en:
    00:21:58.817 : en:
    00:24:52.531 : en:
    00:29:17.130 : en:
    00:32:01.085 : en:
    00:34:45.541 : en:
    00:40:08.154 : en:
    00:42:48.314 : en:
    00:47:50.073 : en:
    00:51:12.734 : en:
    00:58:03.396 : en:
    01:01:41.613 : en:
    01:04:24.943 : en:
    01:08:54.253 : en:
    01:11:54.100 : en:
    01:16:33.505 : en:
    01:22:05.502 : en:
    01:26:19.715 : en:
    01:37:47.653 : en:
    01:44:36.478 : en:
    01:50:38.381 : en:
    01:53:22.670 : en:
    01:59:17.565 : en:
    02:03:51.006 : en:
    02:07:32.351 : en:
    02:14:24.722 : en:
    02:20:48.397 : en:
    02:23:11.832 : en:

    Скриншоты сравнения с исходником

    Рип_____
    Исходник
    Скачать .torrent

    Скачать торрент-файл бесплатно и на максимальной скорости!

    Как скачивать? · Что такое торрент? · Рейтинг и ограничения

    !ВНИМАНИЕ!
    Сайт не распространяет и не хранит электронные версии произведений, а занимается лишь лишь предоставлением доступа к создаваемому пользователями каталогу ссылок на торрент-файлы, которые содержат только списки хеш-сумм, убедительная просьба с жалобами обращаться напрямую к пользователю. Файлы для обмена на трекере предоставлены пользователями сайта, и администрация не несёт ответственности за их содержание. Просьба не заливать файлы, защищенные авторскими правами, а также файлы нелегального содержания!


    _________________
    [Профиль] [ЛС]
    Показать сообщения:    
    Ответить на тему

    Текущее время: Сегодня, в 14:59

    Часовой пояс: GMT + 2



    Вы не можете начинать темы
    Вы не можете отвечать на сообщения
    Вы не можете редактировать свои сообщения
    Вы не можете удалять свои сообщения
    Вы не можете голосовать в опросах
    Вы не можете прикреплять файлы к сообщениям
    Вы не можете скачивать файлы