BitTorrentTracker PerecTracker.org
BitTorrentTracker PerecTracker.org
    
Регистрация  ·  Вход
 
 · 
Забыли пароль?

  • В поисках Немо / Finding Nemo (Эндрю Стэнтон / Andrew Stanton, Ли Анкрич / Lee Unkrich) [2003, США, мультфильм, комедия, приключения, семейный, BDRip-AVC] (Локализованный видеоряд) Dub + Original Eng + Sub Rus, Eng

    Ответить на тему
     
    Автор Сообщение

    Flirldrerve

    Создавать темы 21-Июн-2016 05:45

           

    [Цитировать]

    В поисках Немо / Finding Nemo
    Страна: США
    Жанр: мультфильм, комедия, приключения, семейный
    Продолжительность: 01:40:53
    Год выпуска: 2003
    Перевод: Профессиональный (дублированный)
    Оригинальная аудиодорожка: английский
    Навигация по главам: Есть (Подписанные 32 шт.)
    Русские субтитры: есть--Режиссёр: Эндрю Стэнтон / Andrew Stanton, Ли Анкрич / Lee Unkrich--Роли озвучивали: Альберт Брукс, Эллен ДеДженерес, Александр Гулд, Уиллем Дефо, Эллисон Дженни, Джо Рэнфт, Джеффри Раш, Элизабет Перкинс, Эрик Бана, Эндрю Стэнтон, Брэд Гэррет, Остин Пендлтон, Стивен Рут, Викки Льюис...--Роли дублировали: Ян Цапник, Елена Шульман, Федор Машанов, Виктор Костецкий, Мария Кузнецова, Сергей Паршин, Владимир Маслаков, Юлия Рудина, Геннадий Смирнов, Валерий Кухарешин, Алексей Гурьев, Валерий Захарьев, Роман Рязанцев, Светлана Репетина...--Описание: Среди прекрасных тропических морских стихий, в районе Большого барьерного рифа в уединении живет рыба-клоун по имени Марлин. Он растит своего единственного сыночка Немо. Океан и существующие в нем опасности очень страшат Марлина, и он как может ограждает сына от них, но молодой Немо, страдающий излишним любопытством, очень хочет разузнать побольше о таинственном рифе, рядом с которым они живут.
    Когда Немо по иронии судьбы оказывается вдалеке от дома, да и еще сталкивается с угрозой стать обедом рыбы-танка, Марлин отправляется на поиски сына. Но Марлин, конечно же, понимает, что героический спасатель из него не получится и просит о помощи в поисках, Дори, королевскую синюю рыбу, которая хоть и страдает от того, что почти ничего не помнит, но добрее ее не отыскать во всем безбрежном океане!
    Итак, наши герои отправляются в путешествие, в котором их подкарауливают многочисленные трудности и опасности…--Доп. информация: | | | Сэмпл--Качество: BDRip-AVC В поисках Немо / Finding Nemo (2003) Blu-ray CEE 1080p AVC DD5.1 - HDclub
    Формат: MKV
    Видео: AVC, 1024x576, (16:9), 2755 kbps, 23.976 fps, 0.196 bit/pixel
    Аудио 1: AC3 Dolby Digital, 3/2 (L,C,R,l,r) + LFE ch, 48 kHz, 448 kbps | Дубляж |
    Аудио 2: AC3 Dolby Digital, 3/2 (L,C,R,l,r) + LFE ch, 48 kHz, 448 kbps | Дубляж |
    Аудио 3: AC3 Dolby Digital, 3/2 (L,C,R,l,r) + LFE ch, 48 kHz, 448 kbps | Original |
    Субтитры: Русские, Українські, English, English (SDH), Русские (комментарии)

    Скриншоты


    Запасные скриншоты


    Подробные технические данные

    x264

    raw [info]: 1024x576p 1:1 @ 24000/1001 fps (cfr)
    x264 [info]: using SAR=1/1
    x264 [info]: using cpu capabilities: MMX2 SSE2Fast SSSE3 SSE4.2 AVX
    x264 [info]: profile High, level 4.1
    x264 [info]: frame I:998 Avg QP:17.71 size: 71936
    x264 [info]: frame P:35524 Avg QP:19.26 size: 26728
    x264 [info]: frame B:108627 Avg QP:21.91 size: 9792
    x264 [info]: consecutive B-frames: 3.1% 2.5% 10.0% 38.2% 17.0% 22.5% 2.3% 0.9% 0.6% 0.5% 0.6% 0.6% 0.9% 0.2%
    x264 [info]: mb I I16..4: 11.0% 63.7% 25.3%
    x264 [info]: mb P I16..4: 3.0% 15.1% 3.0% P16..4: 41.2% 18.2% 13.0% 0.7% 0.3% skip: 5.5%
    x264 [info]: mb B I16..4: 0.3% 2.0% 0.5% B16..8: 35.9% 10.9% 3.5% direct: 8.1% skip:38.9% L0:44.8% L1:42.0% BI:13.2%
    x264 [info]: 8x8 transform intra:70.5% inter:64.8%
    x264 [info]: coded y,uvDC,uvAC intra: 77.2% 84.2% 58.6% inter: 22.8% 27.0% 6.5%
    x264 [info]: i16 v,h,dc,p: 7% 17% 6% 70%
    x264 [info]: i8 v,h,dc,ddl,ddr,vr,hd,vl,hu: 8% 13% 4% 9% 13% 11% 15% 11% 16%
    x264 [info]: i4 v,h,dc,ddl,ddr,vr,hd,vl,hu: 7% 12% 3% 9% 15% 12% 16% 10% 16%
    x264 [info]: i8c dc,h,v,p: 36% 28% 15% 21%
    x264 [info]: Weighted P-Frames: Y:7.5% UV:5.2%
    x264 [info]: ref P L0: 43.2% 8.6% 15.3% 7.6% 6.0% 4.9% 4.1% 2.7% 2.5% 2.4% 2.4% 0.3% 0.0%
    x264 [info]: ref B L0: 73.1% 10.1% 5.7% 2.9% 2.4% 1.9% 1.6% 1.1% 0.8% 0.4%
    x264 [info]: ref B L1: 95.1% 4.9%
    x264 [info]: kb/s:2755.14
    General
    Unique ID : 249304495315664658562817643557028833596 (0xBB8E4C9D9B2AE92C8F3DC5242A5F293C)
    Complete name : В поисках Немо (2003).mkv
    Format : Matroska
    Format version : Version 4 / Version 2
    File size : 2.89 GiB
    Duration : 1h 40mn
    Overall bit rate : 4 103 Kbps
    Movie name : В поисках Немо / Finding Nemo (2003) Локализованный видеоряд
    Encoded date : UTC 2016-06-20 18:43:49
    Writing application : mkvmerge v8.1.0 ('Psychedelic Postcard') 64bit
    Writing library : libebml v1.3.1 + libmatroska v1.4.2
    Cover : Yes
    Attachments : cover.jpg
    Video
    ID : 1
    Format : AVC
    Format/Info : Advanced Video Codec
    Format profile : High@L4.1
    Format settings, CABAC : Yes
    Format settings, ReFrames : 11 frames
    Codec ID : V_MPEG4/ISO/AVC
    Duration : 1h 40mn
    Bit rate : 2 755 Kbps
    Width : 1 024 pixels
    Height : 576 pixels
    Display aspect ratio : 16:9
    Frame rate mode : Constant
    Frame rate : 23.976 (24000/1001) fps
    Color space : YUV
    Chroma subsampling : 4:2:0
    Bit depth : 8 bits
    Scan type : Progressive
    Bits/(Pixel*Frame) : 0.195
    Stream size : 1.94 GiB (67%)
    Title : Finding Nemo (2003) By optik.1557
    Writing library : x264 core 148 r2692kMod 64f4e24
    Encoding settings : cabac=1 / ref=11 / deblock=1:-2:-1 / analyse=0x3:0x133 / me=umh / subme=10 / psy=1 / fade_compensate=0.00 / psy_rd=1.05:0.03 / mixed_ref=1 / me_range=48 / chroma_me=1 / trellis=2 / 8x8dct=1 / cqm=0 / deadzone=21,11 / fast_pskip=0 / chroma_qp_offset=-3 / threads=6 / lookahead_threads=1 / sliced_threads=0 / nr=0 / decimate=1 / interlaced=0 / bluray_compat=0 / constrained_intra=0 / fgo=0 / bframes=13 / b_pyramid=2 / b_adapt=2 / b_bias=0 / direct=1 / weightb=1 / open_gop=0 / weightp=2 / keyint=250 / keyint_min=23 / scenecut=40 / intra_refresh=0 / rc_lookahead=60 / rc=crf / mbtree=0 / crf=18.4000 / qcomp=0.60 / qpmin=0 / qpmax=69 / qpstep=4 / vbv_maxrate=50000 / vbv_bufsize=62500 / crf_max=0.0 / nal_hrd=none / filler=0 / ip_ratio=1.40 / pb_ratio=1.30 / aq=2:0.90
    Language : English
    Default : Yes
    Forced : No
    Audio #1
    ID : 2
    Format : AC-3
    Format/Info : Audio Coding 3
    Mode extension : CM (complete main)
    Format settings, Endianness : Big
    Codec ID : A_AC3
    Duration : 1h 40mn
    Bit rate mode : Constant
    Bit rate : 448 Kbps
    Channel(s) : 6 channels
    Channel positions : Front: L C R, Side: L R, LFE
    Sampling rate : 48.0 KHz
    Frame rate : 31.250 fps (1536 spf)
    Compression mode : Lossy
    Stream size : 323 MiB (11%)
    Title : Дубляж
    Language : Russian
    Default : Yes
    Forced : No
    Audio #2
    ID : 3
    Format : AC-3
    Format/Info : Audio Coding 3
    Mode extension : CM (complete main)
    Format settings, Endianness : Big
    Codec ID : A_AC3
    Duration : 1h 40mn
    Bit rate mode : Constant
    Bit rate : 448 Kbps
    Channel(s) : 6 channels
    Channel positions : Front: L C R, Side: L R, LFE
    Sampling rate : 48.0 KHz
    Frame rate : 31.250 fps (1536 spf)
    Compression mode : Lossy
    Stream size : 323 MiB (11%)
    Title : Дубляж
    Language : Ukrainian
    Default : No
    Forced : No
    Audio #3
    ID : 4
    Format : AC-3
    Format/Info : Audio Coding 3
    Mode extension : CM (complete main)
    Format settings, Endianness : Big
    Codec ID : A_AC3
    Duration : 1h 40mn
    Bit rate mode : Constant
    Bit rate : 448 Kbps
    Channel(s) : 6 channels
    Channel positions : Front: L C R, Side: L R, LFE
    Sampling rate : 48.0 KHz
    Frame rate : 31.250 fps (1536 spf)
    Compression mode : Lossy
    Stream size : 323 MiB (11%)
    Title : Original
    Language : English
    Default : No
    Forced : No
    Text #1
    ID : 5
    Format : UTF-8
    Codec ID : S_TEXT/UTF8
    Codec ID/Info : UTF-8 Plain Text
    Duration : 1h 32mn
    Bit rate : 104 bps
    Count of elements : 1327
    Stream size : 70.7 KiB (0%)
    Language : Russian
    Default : No
    Forced : No
    Text #2
    ID : 6
    Format : UTF-8
    Codec ID : S_TEXT/UTF8
    Codec ID/Info : UTF-8 Plain Text
    Duration : 1h 32mn
    Bit rate : 111 bps
    Count of elements : 1496
    Stream size : 75.8 KiB (0%)
    Language : Ukrainian
    Default : No
    Forced : No
    Text #3
    ID : 7
    Format : UTF-8
    Codec ID : S_TEXT/UTF8
    Codec ID/Info : UTF-8 Plain Text
    Duration : 1h 32mn
    Bit rate : 70 bps
    Count of elements : 1493
    Stream size : 47.8 KiB (0%)
    Language : English
    Default : No
    Forced : No
    Text #4
    ID : 8
    Format : UTF-8
    Codec ID : S_TEXT/UTF8
    Codec ID/Info : UTF-8 Plain Text
    Duration : 1h 32mn
    Bit rate : 73 bps
    Count of elements : 1575
    Stream size : 50.0 KiB (0%)
    Title : SDH
    Language : English
    Default : No
    Forced : No
    Text #5
    ID : 9
    Format : UTF-8
    Codec ID : S_TEXT/UTF8
    Codec ID/Info : UTF-8 Plain Text
    Duration : 1h 40mn
    Bit rate : 165 bps
    Count of elements : 1499
    Stream size : 122 KiB (0%)
    Title : Комментарии Эндрю Стэнтона, Ли Анкрича и Боба Питерсона
    Language : Russian
    Default : No
    Forced : No
    Menu
    00:00:00.000 : :01. New Parents
    00:04:18.717 : :02. Main Titles
    00:05:35.669 : :03. First Day of School
    00:11:17.802 : :04. Field Trip
    00:12:16.277 : :05. The Drop Off
    00:14:08.848 : :06. Nemo Lost
    00:16:29.280 : :07. Meeting Dory
    00:18:50.338 : :08. Sharks
    00:25:31.989 : :09. The Tank Gang
    00:30:54.227 : :10. The Abyss
    00:33:01.646 : :11. Anglerfish
    00:36:11.836 : :12. Nemo's Initiation
    00:40:19.167 : :13. Fish Impressions
    00:44:58.279 : :14. Jellyfish
    00:48:12.389 : :15. The Filter
    00:51:28.419 : :16. Sea Turtles
    00:56:07.030 : :17. News Travels
    01:00:55.902 : :18. Off Ramp
    01:05:20.667 : :19. Dory Speaks Whale
    01:07:02.101 : :20. Algae
    01:08:30.148 : :21. Inside the Whale
    01:13:19.437 : :22. Sydney Harbour
    01:14:15.201 : :23. The Aquascum
    01:16:00.097 : :24. Pelicans
    01:18:41.300 : :25. Darla!
    01:21:57.621 : :26. Goodbye Dory
    01:24:29.481 : :27. Nemo and Dory
    01:26:54.334 : :28. Fishing Net
    01:29:26.611 : :29. Reunion
    01:30:51.363 : :30. Back on the Reef
    01:32:42.974 : :31. Tank Escape
    01:33:24.265 : :32. End Credits
    Скачать .torrent

    Скачать торрент-файл бесплатно и на максимальной скорости!

    Как скачивать? · Что такое торрент? · Рейтинг и ограничения

    !ВНИМАНИЕ!
    Сайт не распространяет и не хранит электронные версии произведений, а занимается лишь лишь предоставлением доступа к создаваемому пользователями каталогу ссылок на торрент-файлы, которые содержат только списки хеш-сумм, убедительная просьба с жалобами обращаться напрямую к пользователю. Файлы для обмена на трекере предоставлены пользователями сайта, и администрация не несёт ответственности за их содержание. Просьба не заливать файлы, защищенные авторскими правами, а также файлы нелегального содержания!


    _________________
    [Профиль] [ЛС]
    Показать сообщения:    
    Ответить на тему

    Текущее время: Сегодня, в 11:04

    Часовой пояс: GMT + 2



    Вы не можете начинать темы
    Вы не можете отвечать на сообщения
    Вы не можете редактировать свои сообщения
    Вы не можете удалять свои сообщения
    Вы не можете голосовать в опросах
    Вы не можете прикреплять файлы к сообщениям
    Вы не можете скачивать файлы