BitTorrentTracker PerecTracker.org
BitTorrentTracker PerecTracker.org
    
Регистрация  ·  Вход
 
 · 
Забыли пароль?

  • Главный бой Мохаммеда Али / Muhammad Ali\'s Greatest Fight (Стивен Фрирз / Stephen Frears) [2013, США, Драма, биография, HDRip] MVO

    Ответить на тему
     
    Автор Сообщение

    Light

    Создавать темы 20-Июн-2016 20:55

           

    [Цитировать]

    Главный бой Мохаммеда Али / Muhammad Ali's Greatest Fight-Страна: США
    Год выпуска: 2013
    Жанр: Драма, биография
    Продолжительность: 01:38:04
    Cубтитры: нет
    Оригинальная аудиодорожка: нет
    Перевод: Профессиональный (многоголосый закадровый)
    Режиссер: Стивен Фрирз / Stephen Frears
    В ролях: Пабло Шрайбер, Кристофер Пламмер, Дэнни Гловер, Бенджамин Уокер, Фрэнк Ланджелла, Барри Левинсон, Эд Бегли мл., Боб Бэлабан, Мухаммед Али, Дэна Айви...-Описание: На пике карьеры Мохаммеда Али собираются отправить воевать во Вьетнам. Его отказ от службы в американской армии по религиозным соображениям порождает беспрецедентную юридическую битву, в которую оказалась вовлечена высшая судебная инстанция США - Верховный суд. Уважаемый судья Харлан обнаруживает, что с его точкой зрения на проблему не согласен недавно присоединившийся к его кабинету молодой юрист Конноли. Ему приходится убеждать остальных восемь судей, в том числе и главного судью, назначенного президентом Никсоном, пересмотреть вопрос о виновности Мохаммеда Али...-SAMPLE
    Качество видео: HDRip
    Формат видео: AVI
    Видео: 512x288 (16:9), 29.970fps, XviD, 929 kbps avg, 0.210 bit/pixel
    Аудио: MPEG Audio Layer, 48.0 KHz, 2 ch, 128kbps avg

    MediaInfo

    GeneralComplete name : D:\Muhammad Ali's Greatest Fight (2013).aviFormat : AVIFormat/Info : Audio Video InterleaveFile size : 750 MiBDuration : 1h 38mnOverall bit rate : 1 069 KbpsWriting application : VirtualDubMod 1.5.10.3 | www.virtualdub-fr.org || (build 2550/release)Writing library : VirtualDubMod build 2550/release
    VideoID : 0Format : MPEG-4 VisualFormat profile : Advanced Simple@L5Format settings, BVOP : 2Format settings, QPel : NoFormat settings, GMC : No warppointsFormat settings, Matrix : CustomCodec ID : XVIDCodec ID/Hint : XviDDuration : 1h 38mnBit rate : 929 KbpsWidth : 512 pixelsHeight : 288 pixelsDisplay aspect ratio : 16:9Frame rate : 29.970 fpsColor space : YUVChroma subsampling : 4:2:0Bit depth : 8 bitsScan type : ProgressiveCompression mode : LossyBits/(Pixel*Frame) : 0.210Stream size : 652 MiB (87%)Writing library : XviD 73
    AudioID : 1Format : MPEG AudioFormat version : Version 1Format profile : Layer 3Codec ID : 55Codec ID/Hint : MP3Duration : 1h 37mnBit rate mode : ConstantBit rate : 128 KbpsChannel(s) : 2 channelsSampling rate : 48.0 KHzCompression mode : LossyStream size : 89.7 MiB (12%)Alignment : Aligned on interleavesInterleave, duration : 33 ms (1.00 video frame)Interleave, preload duration : 504 msWriting library : LAME3.99rEncoding settings : -m s -V 4 -q 2 -lowpass 17 -b 128

    Скриншоты

    Скачать .torrent

    Скачать торрент-файл бесплатно и на максимальной скорости!

    Как скачивать? · Что такое торрент? · Рейтинг и ограничения

    !ВНИМАНИЕ!
    Сайт не распространяет и не хранит электронные версии произведений, а занимается лишь лишь предоставлением доступа к создаваемому пользователями каталогу ссылок на торрент-файлы, которые содержат только списки хеш-сумм, убедительная просьба с жалобами обращаться напрямую к пользователю. Файлы для обмена на трекере предоставлены пользователями сайта, и администрация не несёт ответственности за их содержание. Просьба не заливать файлы, защищенные авторскими правами, а также файлы нелегального содержания!


    _________________
    [Профиль] [ЛС]
    Показать сообщения:    
    Ответить на тему

    Текущее время: Сегодня, в 10:06

    Часовой пояс: GMT + 2



    Вы не можете начинать темы
    Вы не можете отвечать на сообщения
    Вы не можете редактировать свои сообщения
    Вы не можете удалять свои сообщения
    Вы не можете голосовать в опросах
    Вы не можете прикреплять файлы к сообщениям
    Вы не можете скачивать файлы