BitTorrentTracker PerecTracker.org
BitTorrentTracker PerecTracker.org
    
Регистрация  ·  Вход
 
 · 
Забыли пароль?

  • Твои, мои и наши / Yours, Mine & Ours (Раджа Госнелл / Raja Gosnell) [2005, США, комедия, семейный, мелодрама, BDRip 720p] Dub (Невафильм) + AVO (Евгений Гранкин) + Sub Rus, Eng + Original Eng

    Ответить на тему
     
    Автор Сообщение

    Light

    Создавать темы 20-Июн-2016 20:55

           

    [Цитировать]

    Твои, мои и наши / Yours, Mine & Ours
    Страна: США
    Жанр: комедия, семейный, мелодрама
    Год выпуска: 2005
    Продолжительность: 01:28:05
    Перевод 1: Профессиональный (дублированный) Невафильм
    Перевод 2: Авторский (одноголосый закадровый) Евгений Гранкин
    Cубтитры: русские
    Оригинальная аудиодорожка: английский
    Режиссер: Раджа Госнелл / Raja Gosnell
    В ролях: Деннис Куэйд, Рене Руссо, Шон Фэрис, Катя Певек, Дин Коллинз, Тайлер Патрик Джонс, Хейли Рэмм, Брекен Палмер, Бриджер Палмер, Тай Паниц...
    Описание: Овдовевший адмирал береговой охраны встречает женщину своей мечты, недавно потерявшую мужа. Два уже немолодых человека полюбили друг друга и решили пожениться.
    А что делать — любящие люди должны жить вместе, даже если у него восемь детей, а у неё их десять. И пока дети сражаются друг с другом за территорию, их родители проходят проверку на крепость чувств…
    Доп. информация: Рип с немецкого Blu-Ray. За перевод Гранкина спасибо Tjutjkin, в переводе был сильный плавающий рассинхрон, устранен настолько, насколько это было возможно.
    Сэмпл: http://sendfile.su/1243895
    Тип релиза: BDRip 720p
    Контейнер: MKV
    Видео: 1280x544 (2.35:1), 23.976 fps, AVC, ~5592 Kbps, 0.335 bits/pixel
    Аудио 1: Russian, 48.0 KHz, AC3, 6 ch, 384 Kbps - Невафильм
    Аудио 2: Russian, 48.0 KHz, AC3, 2 ch, 192 Kbps - Евгений Гранкин
    Аудио 3: English, 48.0 KHz, DTS, 6 ch, 1510 Kbps

    MediaInfo

    General
    Unique ID : 182641354245869244440996477446857785060 (0x89677200A8B4A4C085693C9948057EE4)
    Complete name : C:\Yours Mine And Ours. BDRip 720p.mkv
    Format : Matroska
    Format version : Version 4 / Version 2
    File size : 4.72 GiB
    Duration : 1h 28mn
    Overall bit rate : 7 679 Kbps
    Encoded date : UTC 2016-06-18 15:30:12
    Writing application : mkvmerge v9.2.0 ('Photograph') 64bit
    Writing library : libebml v1.3.3 + libmatroska v1.4.4
    Video
    ID : 1
    Format : AVC
    Format/Info : Advanced Video Codec
    Format profile : High@L4.1
    Format settings, CABAC : Yes
    Format settings, ReFrames : 5 frames
    Codec ID : V_MPEG4/ISO/AVC
    Duration : 1h 28mn
    Bit rate : 5 592 Kbps
    Width : 1 280 pixels
    Height : 544 pixels
    Display aspect ratio : 2.35:1
    Frame rate mode : Constant
    Frame rate : 23.976 (24000/1001) fps
    Color space : YUV
    Chroma subsampling : 4:2:0
    Bit depth : 8 bits
    Scan type : Progressive
    Bits/(Pixel*Frame) : 0.335
    Stream size : 3.44 GiB (73%)
    Writing library : x264 core 148 r2692 64f4e24
    Encoding settings : cabac=1 / ref=5 / deblock=1:-3:-3 / analyse=0x3:0x113 / me=umh / subme=8 / psy=1 / psy_rd=1.10:0.00 / mixed_ref=1 / me_range=16 / chroma_me=1 / trellis=1 / 8x8dct=1 / cqm=0 / deadzone=21,11 / fast_pskip=0 / chroma_qp_offset=-2 / threads=12 / lookahead_threads=2 / sliced_threads=0 / nr=0 / decimate=1 / interlaced=0 / bluray_compat=0 / constrained_intra=0 / bframes=3 / b_pyramid=2 / b_adapt=2 / b_bias=0 / direct=3 / weightb=1 / open_gop=0 / weightp=2 / keyint=240 / keyint_min=24 / scenecut=40 / intra_refresh=0 / rc_lookahead=50 / rc=2pass / mbtree=1 / bitrate=5592 / ratetol=1.0 / qcomp=0.60 / qpmin=0 / qpmax=69 / qpstep=4 / cplxblur=20.0 / qblur=0.5 / ip_ratio=1.40 / aq=3:0.80
    Language : English
    Default : Yes
    Forced : No
    Audio #1
    ID : 2
    Format : AC-3
    Format/Info : Audio Coding 3
    Mode extension : CM (complete main)
    Format settings, Endianness : Big
    Codec ID : A_AC3
    Duration : 1h 28mn
    Bit rate mode : Constant
    Bit rate : 384 Kbps
    Channel(s) : 6 channels
    Channel positions : Front: L C R, Side: L R, LFE
    Sampling rate : 48.0 KHz
    Frame rate : 31.250 fps (1536 spf)
    Compression mode : Lossy
    Stream size : 242 MiB (5%)
    Title : Невафильм
    Language : Russian
    Default : Yes
    Forced : No
    Audio #2
    ID : 3
    Format : AC-3
    Format/Info : Audio Coding 3
    Mode extension : CM (complete main)
    Format settings, Endianness : Big
    Codec ID : A_AC3
    Duration : 1h 28mn
    Bit rate mode : Constant
    Bit rate : 192 Kbps
    Channel(s) : 2 channels
    Channel positions : Front: L R
    Sampling rate : 48.0 KHz
    Frame rate : 31.250 fps (1536 spf)
    Compression mode : Lossy
    Stream size : 121 MiB (3%)
    Title : Евгений Гранкин
    Language : Russian
    Default : No
    Forced : No
    Audio #3
    ID : 4
    Format : DTS
    Format/Info : Digital Theater Systems
    Mode : 16
    Format settings, Endianness : Big
    Codec ID : A_DTS
    Duration : 1h 28mn
    Bit rate mode : Constant
    Bit rate : 1 509 Kbps
    Channel(s) : 6 channels
    Channel positions : Front: L C R, Side: L R, LFE
    Sampling rate : 48.0 KHz
    Frame rate : 93.750 fps (512 spf)
    Bit depth : 24 bits
    Compression mode : Lossy
    Stream size : 951 MiB (20%)
    Language : English
    Default : No
    Forced : No
    Text #1
    ID : 5
    Format : UTF-8
    Codec ID : S_TEXT/UTF8
    Codec ID/Info : UTF-8 Plain Text
    Duration : 1h 21mn
    Bit rate : 99 bps
    Count of elements : 858
    Stream size : 59.5 KiB (0%)
    Language : Russian
    Default : No
    Forced : No
    Text #2
    ID : 6
    Format : UTF-8
    Codec ID : S_TEXT/UTF8
    Codec ID/Info : UTF-8 Plain Text
    Duration : 1h 21mn
    Bit rate : 71 bps
    Count of elements : 1232
    Stream size : 42.4 KiB (0%)
    Language : English
    Default : No
    Forced : No
    Menu
    00:00:00.000 : en:00:00:00.000
    00:06:30.390 : en:00:06:30.390
    00:14:14.854 : en:00:14:14.854
    00:19:23.162 : en:00:19:23.162
    00:24:01.440 : en:00:24:01.440
    00:33:31.009 : en:00:33:31.009
    00:45:52.750 : en:00:45:52.750
    00:57:15.432 : en:00:57:15.432
    01:02:41.758 : en:01:02:41.758
    01:12:40.356 : en:01:12:40.356
    01:18:26.702 : en:01:18:26.702
    01:21:29.885 : en:01:21:29.885

    Скриншоты

    Скачать .torrent

    Скачать торрент-файл бесплатно и на максимальной скорости!

    Как скачивать? · Что такое торрент? · Рейтинг и ограничения

    !ВНИМАНИЕ!
    Сайт не распространяет и не хранит электронные версии произведений, а занимается лишь лишь предоставлением доступа к создаваемому пользователями каталогу ссылок на торрент-файлы, которые содержат только списки хеш-сумм, убедительная просьба с жалобами обращаться напрямую к пользователю. Файлы для обмена на трекере предоставлены пользователями сайта, и администрация не несёт ответственности за их содержание. Просьба не заливать файлы, защищенные авторскими правами, а также файлы нелегального содержания!


    _________________
    [Профиль] [ЛС]
    Показать сообщения:    
    Ответить на тему

    Текущее время: Сегодня, в 10:32

    Часовой пояс: GMT + 2



    Вы не можете начинать темы
    Вы не можете отвечать на сообщения
    Вы не можете редактировать свои сообщения
    Вы не можете удалять свои сообщения
    Вы не можете голосовать в опросах
    Вы не можете прикреплять файлы к сообщениям
    Вы не можете скачивать файлы