BitTorrentTracker PerecTracker.org
BitTorrentTracker PerecTracker.org
    
Регистрация  ·  Вход
 
 · 
Забыли пароль?

  • Тёмное Дитя / Orphan Black / Сезон: 3 / Серии: 01-10 (10) (Джон Фоусет, Т.Дж. Скотт) (2015, фантастика, боевик, драма, WEB-DLRip] MVO (To4ka) + Original

    Ответить на тему
     
    Автор Сообщение

    rechyn

    Создавать темы 20-Июн-2016 20:12

           

    [Цитировать]

    Тёмное Дитя / Orphan Black
    Год выпуска: 2015
    Страна: Канада | SPACE
    Жанр: фантастика, боевик, драма
    Продолжительность: ~ 44 минуты
    Перевод: Любительский (многоголосый, закадровый) - To4ka-Режиссёры: Джон Фоусет, Т.Дж. Скотт и др.
    В ролях: Татьяна Маслани, Джордан Джаварис, Дилан Брюс, Скайлер Уэкслер, Мария Дойл Кеннеди, Кевин Ханчард, Инга Кадранел, Рон Лиа, Майкл Мэндо, Дрю Дэвис и др.-Описание: Сара - изгой и сирота, чья жизнь круто меняет после того, как она становится свидетелем самоубийства женщины, которая как две капли воды похожа на нее. Сара выдает себя за погибшую, но вместо того, чтобы избавиться от проблем, она в них только глубже увязает. Девушка делает ошеломляющее открытие - они с умершей не просто похожи... они с ней ... и только ли они вдвоем?-Качество: WEB-DLRip
    Формат: AVI
    Видео кодек: XviD
    Аудио кодек: MP3
    Видео: 720x400 (16:9), 23.976 fps, ~1200 kbps, ~0.190 bit/pixel
    Аудио Rus: 48 kHz, 2 ch, ~128 kbps |To4ka|
    Аудио Eng: 48 kHz, 2 ch, ~128 kbps |Original|--Все раздачи сериала / Сэмпл / / -

    Перевод

    01-10 серия: Luizot, Fleur_de_Lotus, SuperWhoLock, Nurgaliyev, Volcath, blackbobr, La_Reine_Margot, Volcath

    Скриншоты

    MediaInfo

    J:\Orphan.Black.s03e01.HDTVRip.Rus.Eng.[To4ka.TV].avi
    General
    Complete name : J:\Orphan.Black.s03e01.HDTVRip.Rus.Eng.[To4ka.TV].avi
    Format : AVI
    Format/Info : Audio Video Interleave
    File size : 450 MiB
    Duration : 43mn 51s
    Overall bit rate : 1 435 Kbps
    Writing application : VirtualDubModRus 1.5.10.2 (build 2542/release)
    Writing library : VirtualDubMod build 2542/release
    Video #0
    ID : 0
    Format : MPEG-4 Visual
    Format profile : Advanced Simple@L5
    Format settings, BVOP : 1
    Format settings, QPel : No
    Format settings, GMC : No warppoints
    Format settings, Matrix : Default (MPEG)
    Codec ID : XVID
    Codec ID/Hint : XviD
    Duration : 43mn 51s
    Bit rate : 1 165 Kbps
    Width : 720 pixels
    Height : 400 pixels
    Display aspect ratio : 16:9
    Frame rate : 23.976 fps
    Color space : YUV
    Chroma subsampling : 4:2:0
    Bit depth : 8 bits
    Scan type : Progressive
    Compression mode : Lossy
    Bits/(Pixel*Frame) : 0.169
    Stream size : 365 MiB (81%)
    Writing library : XviD 73
    Audio #1
    ID : 1
    Format : MPEG Audio
    Format version : Version 1
    Format profile : Layer 3
    Mode : Joint stereo
    Mode extension : MS Stereo
    Codec ID : 55
    Codec ID/Hint : MP3
    Duration : 43mn 51s
    Bit rate mode : Constant
    Bit rate : 128 Kbps
    Channel(s) : 2 channels
    Sampling rate : 48.0 KHz
    Compression mode : Lossy
    Stream size : 40.2 MiB (9%)
    Alignment : Aligned on interleaves
    Interleave, duration : 42 ms (1.00 video frame)
    Interleave, preload duration : 504 ms
    Audio #2
    ID : 2
    Format : MPEG Audio
    Format version : Version 1
    Format profile : Layer 3
    Mode : Joint stereo
    Mode extension : MS Stereo
    Codec ID : 55
    Codec ID/Hint : MP3
    Duration : 43mn 51s
    Bit rate mode : Constant
    Bit rate : 128 Kbps
    Channel(s) : 2 channels
    Sampling rate : 48.0 KHz
    Compression mode : Lossy
    Stream size : 40.2 MiB (9%)
    Alignment : Aligned on interleaves
    Interleave, duration : 42 ms (1.00 video frame)
    Interleave, preload duration : 504 ms
    Скачать .torrent

    Скачать торрент-файл бесплатно и на максимальной скорости!

    Как скачивать? · Что такое торрент? · Рейтинг и ограничения

    !ВНИМАНИЕ!
    Сайт не распространяет и не хранит электронные версии произведений, а занимается лишь лишь предоставлением доступа к создаваемому пользователями каталогу ссылок на торрент-файлы, которые содержат только списки хеш-сумм, убедительная просьба с жалобами обращаться напрямую к пользователю. Файлы для обмена на трекере предоставлены пользователями сайта, и администрация не несёт ответственности за их содержание. Просьба не заливать файлы, защищенные авторскими правами, а также файлы нелегального содержания!


    _________________
    [Профиль] [ЛС]
    Показать сообщения:    
    Ответить на тему

    Текущее время: Сегодня, в 15:50

    Часовой пояс: GMT + 2



    Вы не можете начинать темы
    Вы не можете отвечать на сообщения
    Вы не можете редактировать свои сообщения
    Вы не можете удалять свои сообщения
    Вы не можете голосовать в опросах
    Вы не можете прикреплять файлы к сообщениям
    Вы не можете скачивать файлы