BitTorrentTracker PerecTracker.org
BitTorrentTracker PerecTracker.org
    
Регистрация  ·  Вход
 
 · 
Забыли пароль?

  • Тёмное Дитя / Orphan Black / Сезон: 2 / Серии: 1-10 (10) (Джон Фоусет, Т.Дж. Скотт) (2014, фантастика, боевик, драма, WEB-DLRip] MVO (BaibaKo) + Original

    Ответить на тему
     
    Автор Сообщение

    rechyn

    Создавать темы 20-Июн-2016 20:08

           

    [Цитировать]

    Тёмное Дитя / Orphan Black---Страна: Канада | SPACE
    Год выпуска: 2014
    Жанр: фантастика, боевик, драма
    Продолжительность: ~00:44:00
    Перевод: профессиональный многоголосый закадровый BaibaKo
    Субтитры: нет-Режиссеры: Джон Фоусет, Т.Дж. Скотт и др.
    В ролях: Татьяна Маслани, Джордан Джаварис, Дилан Брюс, Скайлер Уэкслер, Мария Дойл Кеннеди, Кевин Ханчард, Инга Кадранел, Рон Лиа, Майкл Мэндо, Дрю Дэвис и др.
    Описание: Сара - изгой и сирота, чья жизнь круто меняет после того, как она становится свидетелем самоубийства женщины, которая как две капли воды похожа на нее. Сара выдает себя за погибшую, но вместо того, чтобы избавиться от проблем, она в них только глубже увязает. Девушка делает ошеломляющее открытие - они с умершей не просто похожи... они с ней ... и только ли они вдвоем?-Качество: WEB-DLRip
    Формат: AVI
    Видео кодек: XviD
    Аудио кодек: MP3
    Видео: 720x400 (16:9), 23.976 fps, 1502 kbps, 0.218 bit/pixel
    Аудио 1: 48 kHz, 2 ch, 192 kbps - Russian
    Аудио 2: 48 kHz, 2 ch, 192 kbps - English-Релиз:

    Озвучание: Юлия Котурбаш, Карина Котурбаш, Елена Григорьева, Александр Фурман и Виталий Ткаченко.
    Перевод: Янина Галицкая.
    Монтаж: Павел Дежин.
    ВНИМАНИЕ! В сериале присутствуют сцены сексуального характера и ненормативная лексика.
    -Все раздачи сериала | Сэмпл |-

    Список серий

    01. Nature Under Constraint And Vexed / Буйство уничтожаемой природы.
    02. Governed By Sound Reason And True Religion / Под влиянием веских причин и истинной религии.
    03. Mingling Its Own Nature With It / Смешать со своей собственной природой.
    04. Governed As It Were By Chance / Обусловлено будто бы случайностью.
    05. Ipsa Scientia Potestas Est.
    06. To Hound Nature In Her Wanderings / По повадкам разнюхать ее сущность.
    07. Knowledge of Causes, and Secret Motion of Things / 31/May/2014
    08. TBA / 07/Jun/2014
    09. TBA / 14/Jun/2014
    10. TBA /

    Скриншоты

    MI

    Общее:
    Формат : AVI
    Формат/Информация : Audio Video Interleave
    Размер файла : 592 Мбайт
    Продолжительность : 43 м.
    Общий поток : 1900 Кбит/сек
    Программа кодирования : VirtualDubMod 1.5.10.2 (build 2540/release)
    Библиотека кодирования : VirtualDubMod build 2540/release
    Видео:
    Формат : MPEG-4 Visual
    Профиль формата : Advanced Simple@L5
    Параметр BVOP формата : 2
    Параметр QPel формата : Нет
    Параметр GMC формата : Без точки перехода
    Параметр матрицы формата : Default (H.263)
    Идентификатор кодека : XVID
    Идентификатор кодека/Подсказка : XviD
    Продолжительность : 43 м.
    Битрейт : 1502 Кбит/сек
    Ширина : 720 пикселей
    Высота : 400 пикселей
    Соотношение сторон : 16:9
    Частота кадров : 23,976 кадра/сек
    Цветовое пространство : YUV
    Субдискретизация насыщенности : 4:2:0
    Битовая глубина : 8 бит
    Тип развёртки : Прогрессивная
    Метод сжатия : С потерями
    Бит/(Пиксели*Кадры) : 0.218
    Размер потока : 468 Мбайт (79%)
    Библиотека кодирования : XviD 1.2.1 (UTC 2008-12-04)
    Аудио #1:
    Формат : MPEG Audio
    Версия формата : Version 1
    Профиль формата : Layer 3
    Режим : Joint stereo
    Расширение режима : MS Stereo
    Идентификатор кодека : 55
    Идентификатор кодека/Подсказка : MP3
    Продолжительность : 43 м.
    Вид битрейта : Постоянный
    Битрейт : 192 Кбит/сек
    Каналы : 2 канала
    Частота : 48,0 КГц
    Метод сжатия : С потерями
    Размер потока : 59,8 Мбайт (10%)
    Выравнивание : Соединение по промежуткам
    Продолжительность промежутка : 42 мс. (1,00 видеокадр)
    Время предзагрузки промежутка : 504 мс.
    Аудио #2:
    Формат : MPEG Audio
    Версия формата : Version 1
    Профиль формата : Layer 3
    Режим : Joint stereo
    Расширение режима : MS Stereo
    Идентификатор кодека : 55
    Идентификатор кодека/Подсказка : MP3
    Продолжительность : 43 м.
    Вид битрейта : Постоянный
    Битрейт : 192 Кбит/сек
    Каналы : 2 канала
    Частота : 48,0 КГц
    Метод сжатия : С потерями
    Размер потока : 59,8 Мбайт (10%)
    Выравнивание : Соединение по промежуткам
    Продолжительность промежутка : 42 мс. (1,00 видеокадр)
    Время предзагрузки промежутка : 504 мс.
    Библиотека кодирования : LAME3.99.5
    Скачать .torrent

    Скачать торрент-файл бесплатно и на максимальной скорости!

    Как скачивать? · Что такое торрент? · Рейтинг и ограничения

    !ВНИМАНИЕ!
    Сайт не распространяет и не хранит электронные версии произведений, а занимается лишь лишь предоставлением доступа к создаваемому пользователями каталогу ссылок на торрент-файлы, которые содержат только списки хеш-сумм, убедительная просьба с жалобами обращаться напрямую к пользователю. Файлы для обмена на трекере предоставлены пользователями сайта, и администрация не несёт ответственности за их содержание. Просьба не заливать файлы, защищенные авторскими правами, а также файлы нелегального содержания!


    _________________
    [Профиль] [ЛС]
    Показать сообщения:    
    Ответить на тему

    Текущее время: Сегодня, в 16:19

    Часовой пояс: GMT + 2



    Вы не можете начинать темы
    Вы не можете отвечать на сообщения
    Вы не можете редактировать свои сообщения
    Вы не можете удалять свои сообщения
    Вы не можете голосовать в опросах
    Вы не можете прикреплять файлы к сообщениям
    Вы не можете скачивать файлы