BitTorrentTracker PerecTracker.org
BitTorrentTracker PerecTracker.org
    
Регистрация  ·  Вход
 
 · 
Забыли пароль?

  • Запрещенный прием / Sucker Punch (Зак Снайдер / Zack Snyder) [2011, США, Канада, фэнтези, боевик, приключения, HDTV 1080i] [Open Matte] Dub + Original Eng

    Ответить на тему
     
    Автор Сообщение

    Light

    Создавать темы 20-Июн-2016 16:50

           

    [Цитировать]

    Запрещенный прием / Sucker Punch
    «К такому ты не готов!»
    Страна: США, Канада
    Жанр: фэнтези, боевик, приключения
    Год выпуска: 2011
    Продолжительность: 01:39:47
    Перевод: Профессиональный (дублированный)
    Cубтитры: нет
    Оригинальная аудиодорожка: английский
    Режиссер: Зак Снайдер / Zack Snyder
    В ролях: Эмили Браунинг, Эбби Корниш, Джена Мэлоун, Ванесса Энн Хадженс, Джейми Чанг, Карла Гуджино, Оскар Айзек, Джон Хэмм, Скотт Гленн, Ричард ЦетронОписание: Действие развернется в 1950 году. Молодую девушку по настоянию ее злодейского отчима определяют в больницу для душевнобольных. Она выдумывает сказочный мир, где и начинает планировать свой побег — для этого ей нужно раздобыть пять предметов.-
    MPAA: PG-13 - Детям до 13 лет просмотр не желателен-Видеоряд предоставил Danilka125
    Синхронизация и работа со звуком xelon2006
    Релиз подготовил Parabellumm-Тип релиза: HDTV 1080i - Sample
    Контейнер: MKV
    Видео: MPEG-4 AVC, 1920x1080 (16:9), 5397 Кбит/с, 25 кадров/сек, 0.104 бит/пиксель
    Аудио #1: AC3, 2 канал, 48 КГц, 192 Кбит/с
    Аудио #2: AC3, 2 канал, 48 КГц, 192 Кбит/с

    MediaInfo

    Общее
    Уникальный идентификатор : 243155977461156309542267803876516878287 (0xB6EE2347D6A9779A807EE31F321AD7CF)
    Полное имя : C:\...\Sucker.Punch.2011.HDTV.1080i.OpenMatte.mkv
    Формат : Matroska
    Версия формата : Version 2
    Размер файла : 4,11 Гбайт
    Продолжительность : 1 ч. 39 м.
    Общий поток : 5898 Кбит/сек
    Название фильма : Sucker Punch (2011) HDTV [OpenMatte] - PB for Rutracker.org
    Дата кодирования : UTC 2016-06-17 17:46:30
    Программа кодирования : mkvmerge v7.6.0 ('Garden of Dreams') 32bit built on Feb 11 2015 00:18:47
    Библиотека кодирования : libebml v1.3.1 + libmatroska v1.4.2
    Видео
    Идентификатор : 1
    Формат : AVC
    Формат/Информация : Advanced Video Codec
    Профиль формата : High@L4.0
    Параметр CABAC формата : Да
    Параметр ReFrames формата : 3 кадра
    Идентификатор кодека : V_MPEG4/ISO/AVC
    Продолжительность : 1 ч. 39 м.
    Битрейт : 5397 Кбит/сек
    Ширина : 1920 пикселей
    Высота : 1080 пикселей
    Соотношение сторон : 16:9
    Режим частоты кадров : Постоянный
    Частота кадров : 25,000 кадров/сек
    Стандарт вещания : Component
    Цветовое пространство : YUV
    Субдискретизация насыщенности : 4:2:0
    Битовая глубина : 8 бит
    Тип развёртки : Чересстрочная
    Порядок развёртки : Верхнее поле первое
    Бит/(Пиксели*Кадры) : 0.104
    Размер потока : 3,76 Гбайт (91%)
    Заголовок : Sucker Punch (2011) HDTV 1080i [OpenMatte]
    Default : Да
    Forced : Нет
    Основные цвета : BT.709
    Характеристики трансфера : BT.709
    Коэффициенты матрицы : BT.709
    Аудио #1
    Идентификатор : 2
    Формат : AC-3
    Формат/Информация : Audio Coding 3
    Расширение режима : CM (complete main)
    Параметр Endianness формата : Big
    Идентификатор кодека : A_AC3
    Продолжительность : 1 ч. 39 м.
    Вид битрейта : Постоянный
    Битрейт : 192 Кбит/сек
    Каналы : 2 канала
    Расположение каналов : Front: L R
    Частота : 48,0 КГц
    Битовая глубина : 16 бит
    Метод сжатия : С потерями
    Размер потока : 137 Мбайт (3%)
    Заголовок : AC3 2.0 - 192kbps [Dub]
    Язык : Russian
    Default : Да
    Forced : Нет
    Аудио #2
    Идентификатор : 3
    Формат : AC-3
    Формат/Информация : Audio Coding 3
    Расширение режима : CM (complete main)
    Параметр Endianness формата : Big
    Идентификатор кодека : A_AC3
    Продолжительность : 1 ч. 39 м.
    Вид битрейта : Постоянный
    Битрейт : 192 Кбит/сек
    Каналы : 2 канала
    Расположение каналов : Front: L R
    Частота : 48,0 КГц
    Битовая глубина : 16 бит
    Метод сжатия : С потерями
    Размер потока : 137 Мбайт (3%)
    Заголовок : AC3 2.0 - 192kbps
    Язык : English
    Default : Нет
    Forced : Нет

    Скриншоты


    Скачать .torrent

    Скачать торрент-файл бесплатно и на максимальной скорости!

    Как скачивать? · Что такое торрент? · Рейтинг и ограничения

    !ВНИМАНИЕ!
    Сайт не распространяет и не хранит электронные версии произведений, а занимается лишь лишь предоставлением доступа к создаваемому пользователями каталогу ссылок на торрент-файлы, которые содержат только списки хеш-сумм, убедительная просьба с жалобами обращаться напрямую к пользователю. Файлы для обмена на трекере предоставлены пользователями сайта, и администрация не несёт ответственности за их содержание. Просьба не заливать файлы, защищенные авторскими правами, а также файлы нелегального содержания!


    _________________
    [Профиль] [ЛС]
    Показать сообщения:    
    Ответить на тему

    Текущее время: Сегодня, в 23:19

    Часовой пояс: GMT + 2



    Вы не можете начинать темы
    Вы не можете отвечать на сообщения
    Вы не можете редактировать свои сообщения
    Вы не можете удалять свои сообщения
    Вы не можете голосовать в опросах
    Вы не можете прикреплять файлы к сообщениям
    Вы не можете скачивать файлы