BitTorrentTracker PerecTracker.org
BitTorrentTracker PerecTracker.org
    
Регистрация  ·  Вход
 
 · 
Забыли пароль?

  • Объятия змея / El abrazo de la serpiente / Embrace of the Serpent (Сиро Герра / Ciro Guerra) [2015, Колумбия, Венесуэла, Аргентина, драма, история, BDRemux 1080p] 2x Sub (Rus, Eng) + Original (Multi language / Spa, Por, Ger, Cat, Lat)

    Ответить на тему
     
    Автор Сообщение

    Light

    Создавать темы 20-Июн-2016 16:50

           

    [Цитировать]

    Объятия змея
    El abrazo de la serpiente / Embrace of the Serpent
    Страна: Колумбия, Венесуэла, Аргентина
    Жанр: драма, история
    Год выпуска: 2015
    Продолжительность: 02:04:17
    Перевод: Субтитры
    Cубтитры: русские [Professor / COLOR], английские [COLOR]
    Оригинальная аудиодорожка: испанский, португальский, немецкий, каталанский, латинский
    -
    Режиссер: Сиро Герра / Ciro Guerra
    В ролях: Нильбио Торрес, Ян Бейвут, Антонио Боливар, Николас Кансино, Брайонни Дэвис, Яуэнку Миге, Луиджи Шаманна
    -
    Описание: История взаимоотношений между Карамакате, амазонским шаманом, последним выжившим представителем своего народа, и двумя учеными, которые на протяжении 40 лет вместе ищут на Амазонке священное целебное растение.

    Тип релиза: BDRemux 1080p
    Контейнер: MKV
    Видео: MPEG-4 AVC / NTSC 16:9 / 1920x1080 (2,40:1) / 25975 fps / 24 fps / 0.543 bit/pixel / High@L4.1
    Аудио: Multi (Spa, Por, Ger, Cat, Lat) / DTS-HD Master Audio / 5.1 Ch / 48 kHz / 4168 kbps / 24-bit (DTS Core: 5.1 Ch / 48 kHz / 1509 kbps / 24-bit) / Original
    Формат субтитров: softsub (SRT)
    Навигация по главам: есть

    Фрагмент субтитров

    257
    00:39:56,720 --> 00:39:58,050
    <font color=#F4F400>Не разговаривай с ним так.</font>
    258
    00:39:58,050 --> 00:40:00,470
    <font color=#F4F400>Он больше тебя сделал
    для наших людей.</font>
    259
    00:40:00,470 --> 00:40:02,920
    <font color=#F4F400>Ты ли это? Посмотри,
    во что ты нарядился?</font>
    260
    00:40:02,920 --> 00:40:05,170
    <font color=#F4F400>Как ты позволил, чтобы
    тебя так изменили?</font>
    261
    00:40:05,170 --> 00:40:08,600
    <font color=#F4F400>Ты мыслишь, как они.
    Ни о чем не думаешь.</font>
    262
    00:40:08,600 --> 00:40:12,020
    <font color=#F4F400>На чьей ты стороне?
    Ты метис.</font>
    263
    00:40:12,020 --> 00:40:16,510
    <font color=#F4F400>Стой, Мандука. Я никогда не встречал
    человека преданнее, чем он.</font>
    264
    00:40:17,100 --> 00:40:20,060
    <font color=#F4F400>Он не переставал защищать
    свой народ. А ты?</font>
    265
    00:40:20,070 --> 00:40:21,420
    <font color=#F4F400>Ты что сделал?</font>
    266
    00:40:21,420 --> 00:40:24,880
    <font color=#F4F400>Изолировался, как безумный,
    вдали от мира.</font>
    267
    00:40:26,180 --> 00:40:28,590
    <font color=#F4F400>Я ничего не краду.</font>
    268
    00:40:34,180 --> 00:40:35,770
    <font color=#F4F400>Посмотри!</font>
    269
    00:40:43,760 --> 00:40:45,360
    <font color=#F4F400>Вот мое знание.</font>
    270
    00:40:45,360 --> 00:40:48,460
    <font color=#F4F400>Ты тоже пытаешься познать
    окружающий тебя мир.</font>
    271
    00:40:48,470 --> 00:40:50,630
    <font color=#F4F400>Так же рассказываешь истории.</font>

    MediaInfo

    Общее
    Уникальный идентификатор                 : 196858002691663494706811889836076709692 (0x941978E340E7C7C58B633C3305A2373C)
    Полное имя                               : N:\BDRemux 1080p\El abrazo de la serpiente.2015.BDRemux.1080p.mkv
    Формат                                   : Matroska
    Версия формата                           : Version 4 / Version 2
    Размер файла                             : 26,2 Гбайт
    Продолжительность                        : 2 ч. 4 м.
    Общий поток                              : 30,1 Мбит/сек
    Дата кодирования                         : UTC 2016-06-18 00:23:36
    Программа кодирования                    : mkvmerge v9.2.0 ('Photograph') 64bit
    Библиотека кодирования                   : libebml v1.3.3 + libmatroska v1.4.4
    Видео
    Идентификатор                            : 1
    Формат                                   : AVC
    Формат/Информация                        : Advanced Video Codec
    Профиль формата                          : High@L4.1
    Параметр CABAC формата                   : Да
    Параметр ReFrames формата                : 4 кадра
    Параметр GOP формата                     : M=3, N=12
    Идентификатор кодека                     : V_MPEG4/ISO/AVC
    Продолжительность                        : 2 ч. 4 м.
    Вид битрейта                             : Постоянный
    Битрейт                                  : 27,0 Мбит/сек
    Ширина                                   : 1920 пикселей
    Высота                                   : 1080 пикселей
    Соотношение сторон                       : 16:9
    Режим частоты кадров                     : Постоянный
    Частота кадров                           : 24,000 кадра/сек
    Стандарт вещания                         : NTSC
    Цветовое пространство                    : YUV
    Субдискретизация насыщенности            : 4:2:0
    Битовая глубина                          : 8 бит
    Тип развёртки                            : Прогрессивная
    Бит/(Пиксели*Кадры)                      : 0.543
    Размер потока                            : 22,6 Гбайт (86%)
    Язык                                     : Несколько языков
    Default                                  : Да
    Forced                                   : Нет
    Цветовой диапазон                        : Limited
    Основные цвета                           : BT.709
    Характеристики трансфера                 : BT.709
    Коэффициенты матрицы                     : BT.709
    Аудио
    Идентификатор                            : 2
    Формат                                   : DTS
    Формат/Информация                        : Digital Theater Systems
    Профиль формата                          : MA / Core
    Режим                                    : 16
    Параметр Endianness формата              : Big
    Идентификатор кодека                     : A_DTS
    Продолжительность                        : 2 ч. 4 м.
    Вид битрейта                             : Переменный / Постоянный
    Битрейт                                  : 4168 Кбит/сек / 1509 Кбит/сек
    Каналы                                   : 6 каналов
    Расположение каналов                     : Front: L C R, Side: L R, LFE
    Частота                                  : 48,0 КГц
    Частота кадров                           : 93,750 кадра/сек (512 spf)
    Битовая глубина                          : 24 бит
    Метод сжатия                             : Без потерь / Lossy
    Размер потока                            : 3,62 Гбайт (14%)
    Язык                                     : Несколько языков
    Default                                  : Да
    Forced                                   : Нет
    Текст #1
    Идентификатор                            : 3
    Формат                                   : UTF-8
    Идентификатор кодека                     : S_TEXT/UTF8
    Идентификатор кодека/Информация          : UTF-8 Plain Text
    Продолжительность                        : 2 ч. 0 м.
    Битрейт                                  : 64 бит/сек
    Count of elements                        : 748
    Размер потока                            : 56,5 Кбайт (0%)
    Заголовок                                : Professor
    Язык                                     : Russian
    Default                                  : Да
    Forced                                   : Нет
    Текст #2
    Идентификатор                            : 4
    Формат                                   : UTF-8
    Идентификатор кодека                     : S_TEXT/UTF8
    Идентификатор кодека/Информация          : UTF-8 Plain Text
    Продолжительность                        : 2 ч. 0 м.
    Битрейт                                  : 48 бит/сек
    Count of elements                        : 769
    Размер потока                            : 42,5 Кбайт (0%)
    Заголовок                                : ENG
    Язык                                     : English
    Default                                  : Нет
    Forced                                   : Нет
    Меню
    00:00:00.000                             : en:Chapter 1
    00:08:36.625                             : en:Chapter 2
    00:17:06.750                             : en:Chapter 3
    00:23:13.416                             : en:Chapter 4
    00:28:35.166                             : en:Chapter 5
    00:35:14.458                             : en:Chapter 6
    00:42:24.416                             : en:Chapter 7
    00:53:45.416                             : en:Chapter 8
    00:58:15.583                             : en:Chapter 9
    01:06:37.583                             : en:Chapter 10
    01:18:07.125                             : en:Chapter 11
    01:25:22.333                             : en:Chapter 12
    01:33:46.833                             : en:Chapter 13
    01:43:36.958                             : en:Chapter 14
    01:47:46.166                             : en:Chapter 15
    02:00:29.625                             : en:Chapter 16

    Скриншоты

    Скачать .torrent

    Скачать торрент-файл бесплатно и на максимальной скорости!

    Как скачивать? · Что такое торрент? · Рейтинг и ограничения

    !ВНИМАНИЕ!
    Сайт не распространяет и не хранит электронные версии произведений, а занимается лишь лишь предоставлением доступа к создаваемому пользователями каталогу ссылок на торрент-файлы, которые содержат только списки хеш-сумм, убедительная просьба с жалобами обращаться напрямую к пользователю. Файлы для обмена на трекере предоставлены пользователями сайта, и администрация не несёт ответственности за их содержание. Просьба не заливать файлы, защищенные авторскими правами, а также файлы нелегального содержания!


    _________________
    [Профиль] [ЛС]
    Показать сообщения:    
    Ответить на тему

    Текущее время: Сегодня, в 20:49

    Часовой пояс: GMT + 2



    Вы не можете начинать темы
    Вы не можете отвечать на сообщения
    Вы не можете редактировать свои сообщения
    Вы не можете удалять свои сообщения
    Вы не можете голосовать в опросах
    Вы не можете прикреплять файлы к сообщениям
    Вы не можете скачивать файлы