BitTorrentTracker PerecTracker.org
BitTorrentTracker PerecTracker.org
    
Регистрация  ·  Вход
 
 · 
Забыли пароль?

  • Этажом ниже / The Ones Below (Дэвид Фарр / David Farr) [2015, Великобритания, триллер, WEBDLRip-AVC] VO + Sub Rus + Original Eng

    Ответить на тему
     
    Автор Сообщение

    Light

    Создавать темы 20-Июн-2016 16:50

           

    [Цитировать]

    Этажом ниже / The Ones Below
    Страна: Великобритания
    Жанр: триллер
    Год выпуска: 2015
    Продолжительность: 01:26:05-Перевод: Professor
    Озвучка: одноголосный закадровый datynet
    Cубтитры: русские | Professor
    Оригинальная аудио дорожка: английская-Режиссер: Дэвид Фарр / David Farr-В ролях: Клеманс Поэзи, Дэвид Моррисси, Стивен Кэмпбелл Мур, Лаура Бирн, Дебора Файндлей, Наташа Алдерслэйд, Лайла Ай, Фрэнсис Эшман, Алекс Эйвери, Грэйс Калдер-Описание: Пара, ждущая первого ребенка, обнаруживает странную разницу между собой и семейной парой, живущей этажом ниже и тоже ждущей ребенка.-Дополнительная информация: тема переработана, исправлены мелкие технические ошибки, на содержание фильма не повлияли-Сэмпл: http://sendfile.su/1244160-Качество видео: WEBDLRip-AVC
    Качество: WEBDLRip-AVC (исходник: The.Ones.Below.2015.720p.WEB-DL.DD5.1.H264-FGT)
    Формат видео: MKV
    Видео: MPEG4/AVC, 1024x544, 1.882, 23.976 (24000/1001) fps, 2034 Kbps
    Аудио 1: AC-3, 48.0 KHz, 192 Kbps, 2 channels | datynet
    Аудио 2: AC-3, 48.0 KHz, 192 Kbps, 2 channels | оригинал
    Формат субтитров: softsub (SRT)

    MediaInfo

    Формат : Matroska
    Версия формата : Version 2
    Размер файла : 1,46 Гбайт
    Продолжительность : 1 ч. 26 м.
    Общий поток : 2420 Кбит/сек
    Дата кодирования : UTC 2016-06-20 05:44:02
    Программа кодирования : mkvmerge v7.6.0 ('Garden of Dreams') 32bit built on Feb 11 2015 00:18:47
    Библиотека кодирования : libebml v1.3.1 + libmatroska v1.4.2
    Видео
    Идентификатор : 1
    Формат : AVC
    Формат/Информация : Advanced Video Codec
    Профиль формата : High@L4.1
    Параметр CABAC формата : Да
    Параметр ReFrames формата : 15 кадров
    Идентификатор кодека : V_MPEG4/ISO/AVC
    Продолжительность : 1 ч. 26 м.
    Битрейт : 2034 Кбит/сек
    Ширина : 1024 пикселя
    Высота : 544 пикселя
    Соотношение сторон : 1,882
    Режим частоты кадров : Постоянный
    Частота кадров : 23,976 (24000/1001) кадра/сек
    Цветовое пространство : YUV
    Субдискретизация насыщенности : 4:2:0
    Битовая глубина : 8 бит
    Тип развёртки : Прогрессивная
    Бит/(Пиксели*Кадры) : 0.152
    Размер потока : 1,20 Гбайт (82%)
    Библиотека кодирования : x264 core 148 r2638 7599210
    Настройки программы : cabac=1 / ref=15 / deblock=1:-3:-3 / analyse=0x3:0x113 / me=umh / subme=9 / psy=1 / psy_rd=0.90:0.00 / mixed_ref=1 / me_range=32 / chroma_me=1 / trellis=2 / 8x8dct=1 / cqm=0 / deadzone=21,11 / fast_pskip=0 / chroma_qp_offset=-2 / threads=6 / lookahead_threads=1 / sliced_threads=0 / nr=0 / decimate=1 / interlaced=0 / bluray_compat=0 / constrained_intra=0 / bframes=16 / b_pyramid=2 / b_adapt=2 / b_bias=0 / direct=3 / weightb=1 / open_gop=0 / weightp=2 / keyint=240 / keyint_min=23 / scenecut=40 / intra_refresh=0 / rc_lookahead=50 / rc=2pass / mbtree=0 / bitrate=2034 / ratetol=1.0 / qcomp=0.60 / qpmin=0 / qpmax=69 / qpstep=4 / cplxblur=20.0 / qblur=0.5 / vbv_maxrate=62500 / vbv_bufsize=78125 / nal_hrd=none / filler=0 / ip_ratio=1.40 / pb_ratio=1.30 / aq=2:1.00
    Default : Да
    Forced : Нет
    Statistics Tags Issue : mkvmerge v8.5.2 ('Crosses') 32bit 2016-06-19 14:22:08 / mkvmerge v7.6.0 ('Garden of Dreams') 32bit built on Feb 11 2015 00:18:47 2016-06-20 05:44:02
    FromStats_BitRate : 2033867
    FromStats_Duration : 01:26:15.170000000
    FromStats_FrameCount : 124080
    FromStats_StreamSize : 1315701002
    Аудио #1
    Идентификатор : 2
    Формат : AC-3
    Формат/Информация : Audio Coding 3
    Расширение режима : CM (complete main)
    Параметр Endianness формата : Big
    Идентификатор кодека : A_AC3
    Продолжительность : 1 ч. 26 м.
    Вид битрейта : Постоянный
    Битрейт : 192 Кбит/сек
    Каналы : 2 канала
    Расположение каналов : Front: L R
    Частота : 48,0 КГц
    Частота кадров : 31,250 кадров/сек (1536 spf)
    Метод сжатия : С потерями
    Размер потока : 118 Мбайт (8%)
    Заголовок : любительский
    Язык : Russian
    Default : Да
    Forced : Нет
    Аудио #2
    Идентификатор : 3
    Формат : AC-3
    Формат/Информация : Audio Coding 3
    Расширение режима : CM (complete main)
    Параметр Endianness формата : Big
    Идентификатор кодека : A_AC3
    Продолжительность : 1 ч. 26 м.
    Вид битрейта : Постоянный
    Битрейт : 192 Кбит/сек
    Каналы : 2 канала
    Расположение каналов : Front: L R
    Частота : 48,0 КГц
    Частота кадров : 31,250 кадров/сек (1536 spf)
    Метод сжатия : С потерями
    Размер потока : 118 Мбайт (8%)
    Заголовок : оригинал
    Язык : English
    Default : Нет
    Forced : Нет
    Текст
    Идентификатор : 4
    Формат : UTF-8
    Идентификатор кодека : S_TEXT/UTF8
    Идентификатор кодека/Информация : UTF-8 Plain Text
    Заголовок : русские
    Язык : Russian
    Default : Да
    Forced : Нет

    Скриншот c названием фильма

    Скриншоты

    log 2-pass

    ---[Information] [19.06.2016 12:28:47] raw [info]: 1024x544p 1:1 @ 24000/1001 fps (cfr)
    ---[Information] [19.06.2016 12:28:47] x264 [info]: profile High, level 4.1
    ---[Information] [19.06.2016 17:22:03] x264 [info]: frame I:1058 Avg QP:14.00 size: 74328
    ---[Information] [19.06.2016 17:22:03] x264 [info]: frame P:32765 Avg QP:16.21 size: 22462
    ---[Information] [19.06.2016 17:22:03] x264 [info]: frame B:90257 Avg QP:17.76 size: 5552
    ---[Information] [19.06.2016 17:22:03] encoded 124080 frames, 7.05 fps, 2033.87 kb/s
    --[Information] [19.06.2016 17:22:03] Final statistics
    ---[Information] [19.06.2016 17:22:03] Video Bitrate Desired: 2034 kbit/s

    Пример субтитров

    50
    00:06:08,130 --> 00:06:09,430
    Она слишком привередлива.
    51
    00:06:09,630 --> 00:06:11,870
    Сад не то, чтобы уродливый.
    Просто...
    52
    00:06:12,200 --> 00:06:14,840
    ...теперь стал
    немного похож на сад.
    53
    00:06:14,840 --> 00:06:16,370
    Ты такая снобка!
    54
    00:06:16,370 --> 00:06:17,940
    Слова сказать нельзя!
    55
    00:06:20,210 --> 00:06:21,640
    На следующей неделе
    я сдаюсь.
    56
    00:06:21,640 --> 00:06:23,040
    В этом нет необходимости.
    57
    00:06:23,780 --> 00:06:24,780
    Нет, есть.
    58
    00:06:24,780 --> 00:06:28,010
    Я не такая, как Аби. Мне не доставляет
    удовольствия командовать тобой.
    59
    00:06:28,020 --> 00:06:30,250
    - Я знаю.
    - А может, ты хотел бы, чтобы я была такой.
    Скачать .torrent

    Скачать торрент-файл бесплатно и на максимальной скорости!

    Как скачивать? · Что такое торрент? · Рейтинг и ограничения

    !ВНИМАНИЕ!
    Сайт не распространяет и не хранит электронные версии произведений, а занимается лишь лишь предоставлением доступа к создаваемому пользователями каталогу ссылок на торрент-файлы, которые содержат только списки хеш-сумм, убедительная просьба с жалобами обращаться напрямую к пользователю. Файлы для обмена на трекере предоставлены пользователями сайта, и администрация не несёт ответственности за их содержание. Просьба не заливать файлы, защищенные авторскими правами, а также файлы нелегального содержания!


    _________________
    [Профиль] [ЛС]
    Показать сообщения:    
    Ответить на тему

    Текущее время: Сегодня, в 14:39

    Часовой пояс: GMT + 2



    Вы не можете начинать темы
    Вы не можете отвечать на сообщения
    Вы не можете редактировать свои сообщения
    Вы не можете удалять свои сообщения
    Вы не можете голосовать в опросах
    Вы не можете прикреплять файлы к сообщениям
    Вы не можете скачивать файлы