BitTorrentTracker PerecTracker.org
BitTorrentTracker PerecTracker.org
    
Регистрация  ·  Вход
 
 · 
Забыли пароль?

  • Папа напрокат / Серии: 1-4 из 4 (Валерий Рожнов) [2014, комедия, WEBRip (1080p)]

    Ответить на тему
     
    Автор Сообщение

    rechyn

    Создавать темы 20-Июн-2016 11:45

           

    [Цитировать]

    Папа напрокат--Год выпуска: 2014
    Производство: "Марс Медиа Энтертейнмент"
    Жанр: комедия
    Продолжительность: 00:50:00
    Субтитры: нет-Режиссёр: Валерий Рожнов-В ролях:
    Эльвира Болгова, Игорь Петренко, Вилле Хаапасало, Ольга Битюцкая, Максим Курышев, Полина Сыркина, Виктор Бунаков-Описание:
    Можно ли сделать головокружительную карьеру за один день?! У Ильи Петровича Соломатина это получилось.
    А все потому, что он — полный тезка экс-супруга начальницы Ирины. Только вот карьера становится совсем «совсем неважным» ни для Него, ни для Нее, ни для мальчика Васи…-Все раздачи сериала-Возраст: 12+-Качество: WEBRip (1080p)
    Формат: MKV
    Видео кодек: AVC
    Аудио кодек: AC3

    Видео: AVC, 1920 х 1080 (16:9), 25,000 кадр/сек, 4 000 Кбит/сек, 0.077 bit/pixel
    Аудио: AC3, 48000 Hz, 192 Kbps, 2 канала
    -

    MediaInfo

    General
    Unique ID : 176223874091014987713036364881029306324 (0x84937BCD6451668C9BFBBB02F67117D4)
    Complete name : D:\Раздачи\Папа напрокат (1-4 серии из 4) WEB-DLRip (1080p)\Papa.Naprokat.01.WEB-DL.10800p.Getty.mkv
    Format : Matroska
    Format version : Version 4 / Version 2
    File size : 1.46 GiB
    Duration : 49mn 41s
    Overall bit rate : 4 194 Kbps
    Movie name : Papa.Naprokat.01.WEB-DL.10800p.Getty
    Encoded date : UTC 2014-02-01 19:48:23
    Writing application : mkvmerge v6.6.0 ('The Edge Of The In Between') built on Dec 18 2013 23:19:42
    Writing library : libebml v1.3.0 + libmatroska v1.4.1
    Video
    ID : 1
    Format : AVC
    Format/Info : Advanced Video Codec
    Format profile : High@L4
    Format settings, CABAC : Yes
    Format settings, ReFrames : 3 frames
    Codec ID : V_MPEG4/ISO/AVC
    Duration : 49mn 41s
    Bit rate : 4 000 Kbps
    Width : 1 920 pixels
    Height : 1 080 pixels
    Display aspect ratio : 16:9
    Frame rate mode : Constant
    Frame rate : 25.000 fps
    Color space : YUV
    Chroma subsampling : 4:2:0
    Bit depth : 8 bits
    Scan type : Progressive
    Bits/(Pixel*Frame) : 0.077
    Stream size : 1.36 GiB (93%)
    Writing library : x264 core 120
    Encoding settings : cabac=1 / ref=3 / deblock=1:0:0 / analyse=0x3:0x133 / me=umh / subme=7 / psy=1 / psy_rd=1.00:0.00 / mixed_ref=1 / me_range=32 / chroma_me=1 / trellis=2 / 8x8dct=1 / cqm=0 / deadzone=21,11 / fast_pskip=1 / chroma_qp_offset=-2 / threads=12 / sliced_threads=0 / nr=0 / decimate=1 / interlaced=0 / bluray_compat=0 / constrained_intra=0 / bframes=0 / weightp=0 / keyint=75 / keyint_min=26 / scenecut=40 / intra_refresh=0 / rc_lookahead=50 / rc=2pass / mbtree=0 / bitrate=4000 / ratetol=1.0 / qcomp=0.20 / qpmin=10 / qpmax=51 / qpstep=4 / cplxblur=20.0 / qblur=0.5 / vbv_maxrate=5000 / vbv_bufsize=5000 / nal_hrd=none / ip_ratio=1.40 / aq=1:1.00
    Default : Yes
    Forced : No
    Color range : Limited
    Color primaries : BT.709
    Transfer characteristics : BT.709
    Matrix coefficients : BT.709
    Audio
    ID : 2
    Format : AC-3
    Format/Info : Audio Coding 3
    Mode extension : CM (complete main)
    Format settings, Endianness : Big
    Codec ID : A_AC3
    Duration : 49mn 41s
    Bit rate mode : Constant
    Bit rate : 192 Kbps
    Channel(s) : 2 channels
    Channel positions : Front: L R
    Sampling rate : 48.0 KHz
    Frame rate : 31.250 fps (1536 spf)
    Compression mode : Lossy
    Stream size : 68.2 MiB (5%)
    Default : Yes
    Forced : No
    -

    Скриншоты сериала


    -
    Скачать .torrent

    Скачать торрент-файл бесплатно и на максимальной скорости!

    Как скачивать? · Что такое торрент? · Рейтинг и ограничения

    !ВНИМАНИЕ!
    Сайт не распространяет и не хранит электронные версии произведений, а занимается лишь лишь предоставлением доступа к создаваемому пользователями каталогу ссылок на торрент-файлы, которые содержат только списки хеш-сумм, убедительная просьба с жалобами обращаться напрямую к пользователю. Файлы для обмена на трекере предоставлены пользователями сайта, и администрация не несёт ответственности за их содержание. Просьба не заливать файлы, защищенные авторскими правами, а также файлы нелегального содержания!


    _________________
    [Профиль] [ЛС]
    Показать сообщения:    
    Ответить на тему

    Текущее время: Сегодня, в 01:22

    Часовой пояс: GMT + 2



    Вы не можете начинать темы
    Вы не можете отвечать на сообщения
    Вы не можете редактировать свои сообщения
    Вы не можете удалять свои сообщения
    Вы не можете голосовать в опросах
    Вы не можете прикреплять файлы к сообщениям
    Вы не можете скачивать файлы