BitTorrentTracker PerecTracker.org
BitTorrentTracker PerecTracker.org
    
Регистрация  ·  Вход
 
 · 
Забыли пароль?

  • Чудеса с небес / Miracles from Heaven (Патрисия Ригген / Patricia Riggen) [2016, США, Драма, WEB-DL, HD (720p)] MVO + Original + sub (rus, eng, ukr)

    Ответить на тему
     
    Автор Сообщение

    rechyn

    Создавать темы 20-Июн-2016 08:35

           

    [Цитировать]

    Чудеса с небес / Miracles from Heaven
    «How do we explain the impossible?»
    6.705 / 10 6.50 / 10
    -Год выпуска: 2016
    Страна: США
    Жанр: Драма
    Продолжительность: 01:49:00
    Перевод: Многоголосый закадровый (iTunes)
    Оригинальная аудиодорожка: Есть
    Cубтитры: Русские, Английские, Украинские
    Режиссёр: Патрисия Ригген
    Сценарий: Christy Beam, Рэнди Браун
    Продюсер: Девон Франклин, Т.Д. Джейкс, Джо Рот
    Оператор: Чекко Варезе
    Композитор: Карло Силиотто
    Художник: Дэвид Сэндфер, Даг Фик, Мэри Джейн Форт
    Монтаж: Эмма Е. Хикокс
    В ролях: Дженнифер Гарнер, Кайли Роджерс, Мартин Хендерсон, Брайтон Шарбино, Кортни Фанслер, Куин Латифа, Брайс Зенткович, Эухенио Дербес, Келли Коллинз, Джон Кэрролл Линч
    Бюджет: $13 000 000
    Сборы в США: $61 441 433
    Сборы в мире: $11 420 153 = $72 861 586
    Мировая премьера: 16 марта 2016
    Описание: Удивительная история, в которую невозможно поверить, не увидев собственными глазами. Когда кажется все потеряно, и впереди только боль и отчаяние, небеса дарят надежду тем, кто верит.-Качество исходника: WEB-DL 720p (HDClub)
    Качество: WEB-DL
    Тип: HD (720p)
    Контейнер: M4V
    Видео: H.264, 1280x688, 1.85:1, 4 038 Kbps, 23.976 fps
    Аудио 1: Русский/Многоголосый закадровый (iTunes), AAC / 2.0 / 157 Kbps / 48.0 KHz
    Аудио 2: Английский/Оригинальная дорожка , AAC / 2.0 / 157 Kbps / 48.0 KHz
    Аудио 3: Украинский/Дублированный (iTunes), AAC / 2.0 / 155 Kbps / 44.1 KHz
    Аудио 4: Русский/Многоголосый закадровый (iTunes), AC-3 / 5.1 / 384 Kbps / 48.0 KHz
    Аудио 5: Английский/Оригинальная дорожка , AC-3 / 5.1 / 384 Kbps / 48.0 KHz
    Субтитры 1: Русские полные
    Субтитры 2: Английские полные
    Субтитры 3: Украинские полные
    -

    iTunes Meta Tags

    Sort Name: Miracles from Heaven
    XID: Apple:vendor_id:2016-910532
    contentID: 1086269768
    Screenwriters: Christy Beam, Рэнди Браун
    Producers: Девон Франклин, Т.Д. Джейкс, Джо Рот
    Director: Патрисия Ригген
    Cast: Дженнифер Гарнер, Кайли Роджерс, Мартин Хендерсон, Брайтон Шарбино, Кортни Фанслер, Куин Латифа, Брайс Зенткович, Эухенио Дербес, Келли Коллинз, Джон Кэрролл Линч
    Studio: TriStar Pictures
    Rating: 3
    Long Description: Удивительная история, в которую невозможно поверить, не увидев собственными глазами. Когда кажется все потеряно, и впереди только боль и отчаяние, небеса дарят надежду тем, кто верит.
    Description: Удивительная история, в которую невозможно поверить, не увидев собственными глазами. Когда кажется все потеряно, и впереди только боль и отчаяние, небеса дарят надежду тем, кто верит.
    Release Date: 2016-03-16T08:00:00Z
    Genre: Drama
    Artist: Patricia Riggen
    Name: Miracles from Heaven

    MediaInfo

    General
    Complete name : /Users/imac/HandBrake/Miracles.from.Heaven.WEB-DL.720p.(pk). СПАМ
    Format : MPEG-4
    Codec ID : M4V
    File size : 4.03 GiB
    Duration : 1h 49mn
    Overall bit rate mode : Variable
    Overall bit rate : 5 285 Kbps
    Movie name : Miracles from Heaven
    Performer : Patricia Riggen
    Director : Патрисия Ригген
    Actor : Дженнифер Гарнер / Кайли Роджерс / Мартин Хендерсон / Брайтон Шарбино / Кортни Фанслер / Куин Латифа / Брайс Зенткович / Эухенио Дербес / Келли Коллинз / Джон Кэрролл Линч
    Screenplay by : Christy Beam / Рэнди Браун
    Producer : Девон Франклин / Т.Д. Джейкс / Джо Рот
    Production studio : TriStar Pictures
    Genre : Drama
    ContentType : Short Film
    Description : Удивительная история, в которую невозможно поверить, не увидев собственными глазами. Когда кажется все потеряно, и впереди только боль и отчаяние, небеса дарят надежду тем, кто верит.
    Recorded date : UTC 2016-03-16 08:00:00
    Encoded date : UTC 2016-06-19 20:03:31
    Tagged date : UTC 2016-06-19 20:07:34
    Cover : Yes
    Rating : None
    Title/Sort : Miracles from Heaven
    LongDescription : Удивительная история, в которую невозможно поверить, не увидев собственными глазами. Когда кажется все потеряно, и впереди только боль и отчаяние, небеса дарят надежду тем, кто верит.
    HDVideo : Yes
    AppleStoreCatalogID : 1086269768
    Vendor : Apple:vendor_id:2016-910532
    ContentRating : mpaa|PG|200|
    Video #1
    ID : 1
    Format : AVC
    Format/Info : Advanced Video Codec
    Format profile : High@L3.1
    Format settings, CABAC : No
    Format settings, ReFrames : 2 frames
    Format settings, GOP : M=2, N=90
    Codec ID : avc1
    Codec ID/Info : Advanced Video Coding
    Duration : 1h 49mn
    Bit rate : 4 038 Kbps
    Width : 1 280 pixels
    Height : 688 pixels
    Display aspect ratio : 1.85:1
    Frame rate mode : Variable
    Frame rate : 23.976 fps
    Minimum frame rate : 23.810 fps
    Maximum frame rate : 25.641 fps
    Color space : YUV
    Chroma subsampling : 4:2:0
    Bit depth : 8 bits
    Scan type : Progressive
    Bits/(Pixel*Frame) : 0.191
    Stream size : 3.08 GiB (76%)
    Title : Main Program
    Language : English
    Encoded date : UTC 2016-06-19 20:03:31
    Tagged date : UTC 2016-06-19 20:04:46
    Color range : Limited
    Color primaries : BT.709
    Transfer characteristics : BT.709
    Matrix coefficients : BT.709
    Video #2
    ID : 11
    Format : JPEG
    Codec ID : jpeg
    Duration : 1h 49mn
    Bit rate mode : Variable
    Bit rate : 980 bps
    Width : 640 pixels
    Height : 344 pixels
    Display aspect ratio : 1.85:1
    Frame rate mode : Constant
    Frame rate : 0.002 fps
    Color space : YUV
    Chroma subsampling : 4:2:0
    Bit depth : 8 bits
    Compression mode : Lossy
    Bits/(Pixel*Frame) : 2.226
    Stream size : 957 KiB (0%)
    Title : Chapter Images
    Language : English
    Encoded date : UTC 2016-06-19 20:04:50
    Tagged date : UTC 2016-06-19 20:04:50
    Audio #1
    ID : 2
    Format : AAC
    Format/Info : Advanced Audio Codec
    Format profile : LC
    Codec ID : 40
    Duration : 1h 49mn
    Bit rate mode : Variable
    Bit rate : 157 Kbps
    Maximum bit rate : 252 Kbps
    Channel(s) : 2 channels
    Channel positions : Front: L R
    Sampling rate : 48.0 KHz
    Compression mode : Lossy
    Stream size : 122 MiB (3%)
    Title : Russian Stereo
    Language : Russian
    Encoded date : UTC 2016-06-19 20:03:31
    Tagged date : UTC 2016-06-19 20:04:11
    Audio #2
    ID : 3
    Format : AAC
    Format/Info : Advanced Audio Codec
    Format profile : LC
    Codec ID : 40
    Duration : 1h 49mn
    Bit rate mode : Variable
    Bit rate : 157 Kbps
    Maximum bit rate : 268 Kbps
    Channel(s) : 2 channels
    Channel positions : Front: L R
    Sampling rate : 48.0 KHz
    Compression mode : Lossy
    Stream size : 122 MiB (3%)
    Title : English Stereo
    Language : English
    Encoded date : UTC 2016-06-19 20:03:31
    Tagged date : UTC 2016-06-19 20:04:11
    Audio #3
    ID : 4
    Format : AAC
    Format/Info : Advanced Audio Codec
    Format profile : LC
    Codec ID : 40
    Duration : 1h 49mn
    Bit rate mode : Variable
    Bit rate : 155 Kbps
    Maximum bit rate : 247 Kbps
    Channel(s) : 2 channels
    Channel positions : Front: L R
    Sampling rate : 44.1 KHz
    Compression mode : Lossy
    Stream size : 121 MiB (3%)
    Title : Ukrainian Stereo
    Language : Ukrainian
    Encoded date : UTC 2016-06-19 20:03:31
    Tagged date : UTC 2016-06-19 20:04:11
    Audio #4
    ID : 5
    Format : AC-3
    Format/Info : Audio Coding 3
    Mode extension : CM (complete main)
    Format settings, Endianness : Big
    Codec ID : ac-3
    Duration : 1h 49mn
    Bit rate mode : Constant
    Bit rate : 384 Kbps
    Channel(s) : 6 channels
    Channel positions : Front: L C R, Side: L R, LFE
    Sampling rate : 48.0 KHz
    Bit depth : 16 bits
    Compression mode : Lossy
    Stream size : 299 MiB (7%)
    Title : Russian DD 5.1
    Language : Russian
    Encoded date : UTC 2016-06-19 20:03:31
    Tagged date : UTC 2016-06-19 20:04:11
    Audio #5
    ID : 6
    Format : AC-3
    Format/Info : Audio Coding 3
    Mode extension : CM (complete main)
    Format settings, Endianness : Big
    Codec ID : ac-3
    Duration : 1h 49mn
    Bit rate mode : Constant
    Bit rate : 384 Kbps
    Channel(s) : 6 channels
    Channel positions : Front: L C R, Side: L R, LFE
    Sampling rate : 48.0 KHz
    Bit depth : 16 bits
    Compression mode : Lossy
    Stream size : 299 MiB (7%)
    Title : English DD 5.1
    Language : English
    Encoded date : UTC 2016-06-19 20:03:31
    Tagged date : UTC 2016-06-19 20:04:11
    Text #1
    ID : 7
    Format : Timed Text
    Muxing mode : sbtl
    Codec ID : tx3g
    Duration : 1h 44mn
    Bit rate mode : Variable
    Bit rate : 119 bps
    Stream size : 91.3 KiB (0%)
    Title : Russian full
    Language : Russian
    Encoded date : UTC 2016-06-19 20:03:31
    Tagged date : UTC 2016-06-19 20:04:09
    Text #2
    ID : 8
    Format : Timed Text
    Muxing mode : sbtl
    Codec ID : tx3g
    Duration : 1h 43mn
    Bit rate mode : Variable
    Bit rate : 74 bps
    Stream size : 56.0 KiB (0%)
    Title : English full
    Language : English
    Encoded date : UTC 2016-06-19 20:03:31
    Tagged date : UTC 2016-06-19 20:04:09
    Text #3
    ID : 9
    Format : Timed Text
    Muxing mode : sbtl
    Codec ID : tx3g
    Duration : 1h 44mn
    Bit rate mode : Variable
    Bit rate : 112 bps
    Stream size : 86.0 KiB (0%)
    Title : Ukrainian full
    Language : Ukrainian
    Encoded date : UTC 2016-06-19 20:03:31
    Tagged date : UTC 2016-06-19 20:04:09
    Menu #1
    00:00:00.000 : 1
    00:06:09.244 : 2
    00:12:47.183 : 3
    00:19:16.155 : 4
    00:26:48.607 : 5
    00:33:37.807 : 6
    00:39:38.542 : 7
    00:45:46.785 : 8
    00:53:36.212 : 9
    01:00:57.570 : 10
    01:08:35.110 : 11
    01:16:12.358 : 12
    01:23:12.653 : 13
    01:29:05.589 : 14
    01:35:58.668 : 15
    01:43:03.175 : 16
    Menu #2
    ID : 10
    Codec ID : text
    Duration : 1h 49mn
    Language : English
    Encoded date : UTC 2016-06-19 20:04:46
    Tagged date : UTC 2016-06-19 20:04:46
    00:00:00.000 : 1
    00:06:09.244 : 2
    00:12:47.183 : 3
    00:19:16.155 : 4
    00:26:48.607 : 5
    00:33:37.807 : 6
    00:39:38.542 : 7
    00:45:46.785 : 8
    00:53:36.212 : 9
    01:00:57.570 : 10
    01:08:35.110 : 11
    01:16:12.358 : 12
    01:23:12.653 : 13
    01:29:05.589 : 14
    01:35:58.668 : 15
    01:43:03.175 : 16
    Bit rate mode : VBR

    Скриншоты

    -

    Релиз подготовлен для просмотра на Apple TV, iPad, iPhone, iPod Touch.
    Для просмотра данного релиза на компьютере с ОС Windows рекомендуется использовать VLC media player
    Скачать .torrent

    Скачать торрент-файл бесплатно и на максимальной скорости!

    Как скачивать? · Что такое торрент? · Рейтинг и ограничения

    !ВНИМАНИЕ!
    Сайт не распространяет и не хранит электронные версии произведений, а занимается лишь лишь предоставлением доступа к создаваемому пользователями каталогу ссылок на торрент-файлы, которые содержат только списки хеш-сумм, убедительная просьба с жалобами обращаться напрямую к пользователю. Файлы для обмена на трекере предоставлены пользователями сайта, и администрация не несёт ответственности за их содержание. Просьба не заливать файлы, защищенные авторскими правами, а также файлы нелегального содержания!


    _________________
    [Профиль] [ЛС]
    Показать сообщения:    
    Ответить на тему

    Текущее время: Сегодня, в 19:32

    Часовой пояс: GMT + 2



    Вы не можете начинать темы
    Вы не можете отвечать на сообщения
    Вы не можете редактировать свои сообщения
    Вы не можете удалять свои сообщения
    Вы не можете голосовать в опросах
    Вы не можете прикреплять файлы к сообщениям
    Вы не можете скачивать файлы