Register  ·  Log in
Forgot password?

  • День матери / Mothers and Daughters (Пол Даддридж / Paul Duddridge, Найджел Леви / Nigel Levy) [2016, США, Драма, WEB-DLRip] DVO (RecentFilms)

    Reply to topic
    Author Message


    Post 20-Jun-2016 09:35



    День матери / Mothers and Daughters
    Страна: США
    Жанр: Драма
    Год выпуска: 2016
    Продолжительность: 01:31:39
    Перевод: Любительский (двухголосый закадровый) RecentFilms
    Cубтитры: нет
    Режиссер: Пол Даддридж / Paul Duddridge, Найджел Леви / Nigel Levy
    В ролях: Кристина Риччи, Шэрон Стоун, Кортни Кокс, Роселин Санчес, Сьюзен Сарандон, Мира Сорвино, Сэлма Блэр, Ева Амурри, Пол Уэсли, Наталия Гуслистая
    Описание: История описывает отношения десяти женщин со своими дочерьми накануне Дня матери.
    Качество видео: WEB-DLRip
    Формат видео: AVI
    Видео: 720x400 (1.80:1), 23.976 fps, XviD build 73 ~2084 kbps avg, 0.30 bit/pixel
    Аудио: 48 kHz, AC3 Dolby Digital, 2/0 (L,R) ch, ~192 kbps - RecentFilms


    Complete name : E:\Zona Downloads\Mothers.and.Daughters.2016.WEB-DLRip.1.46Gb..avi
    Format : AVI
    Format/Info : Audio Video Interleave
    File size : 1.46 GiB
    Duration : 1h 31mn
    Overall bit rate : 2 284 Kbps
    ID : 0
    Format : MPEG-4 Visual
    Format profile : Advanced Simple@L5
    Format settings, BVOP : 1
    Format settings, QPel : No
    Format settings, GMC : No warppoints
    Format settings, Matrix : Custom
    Codec ID : XVID
    Codec ID/Hint : XviD
    Duration : 1h 31mn
    Bit rate : 2 085 Kbps
    Width : 720 pixels
    Height : 400 pixels
    Display aspect ratio : 16:9
    Frame rate : 23.976 fps
    Color space : YUV
    Chroma subsampling : 4:2:0
    Bit depth : 8 bits
    Scan type : Progressive
    Compression mode : Lossy
    Bits/(Pixel*Frame) : 0.302
    Stream size : 1.33 GiB (91%)
    Writing library : XviD 73
    ID : 1
    Format : AC-3
    Format/Info : Audio Coding 3
    Mode extension : CM (complete main)
    Format settings, Endianness : Big
    Codec ID : 2000
    Duration : 1h 31mn
    Bit rate mode : Constant
    Bit rate : 192 Kbps
    Channel(s) : 2 channels
    Channel positions : Front: L R
    Sampling rate : 48.0 KHz
    Bit depth : 16 bits
    Compression mode : Lossy
    Stream size : 126 MiB (8%)
    Alignment : Aligned on interleaves
    Interleave, duration : 64 ms (1.53 video frames)
    Interleave, preload duration : 192 ms
    Title : RecentFilms

    Скриншот c названием фильма


    Download .torrent

    Download free and at maximum speed!

    How to Download? · What is a torrent? · Ratings and Limitations

    The site does not extend and does not store electronic(digital) versions of products, and only gives access to a reference catalogue created by users on torrent-files which contain only lists of the hash-sums, the earnest entreaty, with complaints(abuse) to access directly to the user. Files for an exchange on tracker are given by users of a site, and the administration does not bear the responsibility for their maintenance. The request to not fill in the files protected by copyrights, and also files of the illegal maintenance!

    [Profile] [PM]
    Display posts from previous:    
    Reply to topic

    The time now is: Today 08:59

    All times are GMT + 3 Hours

    You cannot post new topics in this forum
    You cannot reply to topics in this forum
    You cannot edit your posts in this forum
    You cannot delete your posts in this forum
    You cannot vote in polls in this forum
    You cannot attach files in this forum
    You cannot download files in this forum