BitTorrentTracker PerecTracker.org
BitTorrentTracker PerecTracker.org
    
Регистрация  ·  Вход
 
 · 
Забыли пароль?

  • Сущая любовь / Tru Love (Кейт Джонстон, Шона МакДональд / Kate Johnston, Shauna MacDonald) [2013, Канада, Мелодрама, DVDRip] (Jotunheimr) + Sub Rus + Original Eng

    Ответить на тему
     
    Автор Сообщение

    Light

    Создавать темы 20-Июн-2016 08:35

           

    [Цитировать]

    Сущая любовь / Tru Love
    Страна: Канада
    Жанр: Мелодрама
    Год выпуска: 2013
    Продолжительность: 01:34:00
    Перевод: Субтитры Jotunheimr
    Cубтитры: русские
    Оригинальная аудиодорожка: английский
    Режиссер: Кейт Джонстон, Шона МакДональд / Kate Johnston, Shauna MacDonald
    В ролях: Кейт Троттер, Питер МакНейл, Шона МакДональд, Анна Сайзон
    Описание: 37-летняя лесбиянка по имени Трю знакомится с 60-летней вдовой Алисой. Их отношения начинают стремительно развиваться, но дочь Алисы, Сюзанна, у которой и без того сложные взаимоотношения с матерью, настроена категорично и пытается не допустить общения матери с Трю.
    Доп. информация: Видео найдено в сети.
    Сэмпл: http://sendfile.su/1244022
    Качество видео: DVDRip
    Формат видео: AVI
    Видео: XviD 856х480 16:9 23,976 кадра/сек 2409 Кбит/сек
    Аудио: AC-3 192 Кбит/сек 48,0 КГц Front: L R - английский язык
    Формат субтитров: softsub (SRT)

    MediaInfo

    Формат : AVI
    Формат/Информация : Audio Video Interleave
    Размер файла : 1,60 Гбайт
    Продолжительность : 1 ч. 27 м.
    Общий поток : 2610 Кбит/сек
    Библиотека кодирования : VirtualDub build 35576/release
    Видео
    Идентификатор : 0
    Формат : MPEG-4 Visual
    Профиль формата : Simple@L3
    Параметр BVOP формата : Нет
    Параметр QPel формата : Нет
    Параметр GMC формата : Без точки перехода
    Параметр матрицы формата : Default (H.263)
    Идентификатор кодека : XVID
    Идентификатор кодека/Подсказка : XviD
    Продолжительность : 1 ч. 27 м.
    Битрейт : 2409 Кбит/сек
    Ширина : 856 пикселей
    Высота : 480 пикселей
    Соотношение сторон : 16:9
    Частота кадров : 23,976 (24000/1001) кадра/сек
    Цветовое пространство : YUV
    Субдискретизация насыщенности : 4:2:0
    Битовая глубина : 8 бит
    Тип развёртки : Прогрессивная
    Метод сжатия : С потерями
    Бит/(Пиксели*Кадры) : 0.245
    Размер потока : 1,48 Гбайт (92%)
    Библиотека кодирования : XviD 64
    Аудио
    Идентификатор : 1
    Формат : AC-3
    Формат/Информация : Audio Coding 3
    Расширение режима : CM (complete main)
    Параметр Endianness формата : Big
    Идентификатор кодека : 2000
    Продолжительность : 1 ч. 27 м.
    Вид битрейта : Постоянный
    Битрейт : 192 Кбит/сек
    Каналы : 2 канала
    Расположение каналов : Front: L R
    Частота : 48,0 КГц
    Частота кадров : 31,250 кадров/сек (1536 spf)
    Метод сжатия : С потерями
    Размер потока : 121 Мбайт (7%)
    Выравнивание : Соединение по промежуткам
    Продолжительность промежутка : 42 мс. (1,00 видеокадр)
    Время предзагрузки промежутка : 512 мс.

    Пример субтитров

    70
    00:06:27,783 --> 00:06:28,783
    Да.
    71
    00:06:28,784 --> 00:06:30,786
    Моя дочь очень скрытная.
    72
    00:06:30,787 --> 00:06:34,359
    Моя мама очень навязчивая.
    73
    00:06:34,792 --> 00:06:36,493
    Хорошо.
    74
    00:06:36,661 --> 00:06:39,532
    Я переоденусь к ужину.
    75
    00:06:40,800 --> 00:06:42,501
    Прошу прощения.
    76
    00:06:44,805 --> 00:06:47,542
    Вот такая она.
    77
    00:06:47,574 --> 00:06:47,808
    Ух ты.
    78
    00:06:47,809 --> 00:06:49,810
    Да, кто бы говорил.
    79
    00:06:49,811 --> 00:06:51,813
    Звонит в последний миг,
    говорит, что приедет.
    80
    00:06:51,814 --> 00:06:53,983
    Будто прямо сейчас
    у меня есть время.
    81
    00:06:53,984 --> 00:06:55,818
    Слава богу, у тебя остался
    запасной ключ.
    82
    00:06:55,819 --> 00:06:58,656
    Да, без проблем.
    83
    00:06:59,824 --> 00:07:02,661
    Классно, снова увидеть тебя.
    84
    00:07:02,794 --> 00:07:05,530
    Ты все еще в этом кафе,
    на Кинг-стрит?
    85
    00:07:05,531 --> 00:07:09,802
    Как его... Зеленое Яблоко?
    86
    00:07:09,803 --> 00:07:10,803
    Голубой Персик.
    87
    00:07:10,804 --> 00:07:14,675
    Нет-нет, я ушла оттуда
    пару месяцев назад и...
    88
    00:07:14,676 --> 00:07:15,877
    Меняешь работу
    так же как женщин.
    89
    00:07:15,878 --> 00:07:18,813
    Неправда.
    90
    00:07:18,814 --> 00:07:20,817
    Работу реже.

    Скриншот c названием фильма

    Скриншоты

    Скачать .torrent

    Скачать торрент-файл бесплатно и на максимальной скорости!

    Как скачивать? · Что такое торрент? · Рейтинг и ограничения

    !ВНИМАНИЕ!
    Сайт не распространяет и не хранит электронные версии произведений, а занимается лишь лишь предоставлением доступа к создаваемому пользователями каталогу ссылок на торрент-файлы, которые содержат только списки хеш-сумм, убедительная просьба с жалобами обращаться напрямую к пользователю. Файлы для обмена на трекере предоставлены пользователями сайта, и администрация не несёт ответственности за их содержание. Просьба не заливать файлы, защищенные авторскими правами, а также файлы нелегального содержания!


    _________________
    [Профиль] [ЛС]
    Показать сообщения:    
    Ответить на тему

    Текущее время: Сегодня, в 06:01

    Часовой пояс: GMT + 2



    Вы не можете начинать темы
    Вы не можете отвечать на сообщения
    Вы не можете редактировать свои сообщения
    Вы не можете удалять свои сообщения
    Вы не можете голосовать в опросах
    Вы не можете прикреплять файлы к сообщениям
    Вы не можете скачивать файлы