BitTorrentTracker PerecTracker.org
BitTorrentTracker PerecTracker.org
    
Регистрация  ·  Вход
 
 · 
Забыли пароль?

  • Ведьма / The VVitch: A New-England Folktale (Роберт Эггерс / Robert Eggers) [2015, США, Великобритания, Канада, Бразилия, ужасы, мистика, BDRip-AVC] MVO + Original + Sub (rus, eng)

    Ответить на тему
     
    Автор Сообщение

    Light

    Создавать темы 20-Июн-2016 08:35

           

    [Цитировать]

    Ведьма / The VVitch: A New-England Folktale«A New-England Folktale»-Страна: США, Великобритания, Канада, Бразилия
    Жанр: ужасы, мистика
    Год выпуска: 2015
    Продолжительность: 01:32:26
    Перевод: Любительский (многоголосый, закадровый) (Paradox & Omskbird records)
    Оригинальная аудиодорожка: английский
    Субтитры: русские (полные) английские (полные, SDH)
    Навигация по главам: есть
    Режиссер: Роберт Эггерс / Robert Eggers
    В ролях: Аня Тейлор-Джой (Thomasin), Ралф Айнесон (William), Кейт Дики (Katherine), Харви Скримшо (Caleb), Элли Грэйнджер (Mercy), Лукас Доусон (Jonas), Джулиан Ричингс (Governor), Батшеба Гарнетт (The Witch), Сара Стефенс (The Witch, Young), Вахаб Каудхри (Black Phillip, озвучка), Axtun Henry Dube (Samuel), Athan Conrad Dube (Samuel)
    Описание: Семья колонистов покидает плантацию, чтобы жить на уединенной ферме рядом с лесом в Новой Англии. Но вскоре младший ребёнок, ещё младенец, исчезает. Наедине с дикой природой нового континента они сталкиваются с нечистыми силами, которые заставляют их сомневаться в выборе.

    Качество: BDRip-AVC (исходник - BDRemux|The.Witch.2015.1080p.BluRay.REMUX.AVC.DTS-HD.MA.5.1-RARBG)
    Контейнер: MKV
    Видео: x264, 1072x646 (5:3), 23,976 fps, ~2325 kbps, 0,140 bit/pixel
    Аудио 1: 48 kHz, AC3 Dolby Digital, 3/2 (L,C,R,l,r) + LFE ch, ~448 kbps [русский]
    Аудио 2: 48 kHz, AC3 Dolby Digital, 3/2 (L,C,R,l,r) + LFE ch, ~448 kbps [английский]
    Формат субтитров: softsub (SRT)
    MediaInfo | x264 log
    Format : Matroska
    Format version : Version 4 / Version 2
    File size : 2.12 GiB
    Duration : 1h 32mn
    Overall bit rate : 3 286 Kbps
    Movie name : Ведьма / The VVitch: A New-England Folktale (2015) :: AFM ::
    Encoded date : UTC 2016-06-19 22:10:25
    Writing application : mkvmerge v8.3.0 ('Over the Horizon') 32bit
    Writing library : libebml v1.3.1 + libmatroska v1.4.2
    Video
    ID : 1
    Format : AVC
    Format/Info : Advanced Video Codec
    Format profile : High@L4.1
    Format settings, CABAC : Yes
    Format settings, ReFrames : 11 frames
    Codec ID : V_MPEG4/ISO/AVC
    Duration : 1h 32mn
    Bit rate : 2 325 Kbps
    Width : 1 072 pixels
    Height : 646 pixels
    Display aspect ratio : 5:3
    Frame rate mode : Constant
    Frame rate : 23.976 fps
    Color space : YUV
    Chroma subsampling : 4:2:0
    Bit depth : 8 bits
    Scan type : Progressive
    Bits/(Pixel*Frame) : 0.140
    Stream size : 1.50 GiB (71%)
    Title : BDRip by AFM [RuTracker.org]
    Writing library : x264 core 148 r2665+53 6629127 t_mod_Custom [8-bit@all X86_64]
    Encoding settings : cabac=1 / ref=11 / deblock=1:-2:-2 / analyse=0x3:0x113 / me=umh / subme=10 / psy=1 / fade_compensate=0.00 / psy_rd=1.00:0.00 / mixed_ref=1 / me_range=32 / chroma_me=1 / trellis=2 / 8x8dct=1 / cqm=0 / deadzone=21,11 / fast_pskip=0 / chroma_qp_offset=-2 / threads=6 / lookahead_threads=1 / sliced_threads=0 / nr=0 / decimate=1 / interlaced=0 / bluray_compat=0 / constrained_intra=0 / fgo=0 / bframes=15 / b_pyramid=2 / b_adapt=2 / b_bias=0 / direct=1 / weightb=1 / open_gop=0 / weightp=2 / keyint=250 / keyint_min=23 / scenecut=40 / intra_refresh=0 / rc_lookahead=40 / rc=crf / mbtree=0 / crf=18.3000 / qcomp=0.65 / qpmin=0:0:0 / qpmax=69:69:69 / qpstep=4 / vbv_maxrate=50000 / vbv_bufsize=62500 / crf_max=0.0 / nal_hrd=none / filler=0 / ip_ratio=1.30 / pb_ratio=1.22 / aq=3:0.90 / aq-sensitivity=10.00 / aq-factor=1.00:1.00:1.00 / aq2=0 / aq3=0
    Language : English
    Default : Yes
    Forced : No
    Audio #1
    ID : 2
    Format : AC-3
    Format/Info : Audio Coding 3
    Mode extension : CM (complete main)
    Format settings, Endianness : Big
    Codec ID : A_AC3
    Duration : 1h 32mn
    Bit rate mode : Constant
    Bit rate : 448 Kbps
    Channel(s) : 6 channels
    Channel positions : Front: L C R, Side: L R, LFE
    Sampling rate : 48.0 KHz
    Compression mode : Lossy
    Stream size : 296 MiB (14%)
    Title : MVO, AC3 5.1 ~448 kbps
    Language : Russian
    Default : Yes
    Forced : No
    Audio #2
    ID : 3
    Format : AC-3
    Format/Info : Audio Coding 3
    Mode extension : CM (complete main)
    Format settings, Endianness : Big
    Codec ID : A_AC3
    Duration : 1h 32mn
    Bit rate mode : Constant
    Bit rate : 448 Kbps
    Channel(s) : 6 channels
    Channel positions : Front: L C R, Side: L R, LFE
    Sampling rate : 48.0 KHz
    Compression mode : Lossy
    Stream size : 296 MiB (14%)
    Title : Original, AC3 5.1 ~448 kbps
    Language : English
    Default : No
    Forced : No
    Text #1
    ID : 4
    Format : UTF-8
    Codec ID : S_TEXT/UTF8
    Codec ID/Info : UTF-8 Plain Text
    Language : Russian
    Default : No
    Forced : No
    Text #2
    ID : 5
    Format : UTF-8
    Codec ID : S_TEXT/UTF8
    Codec ID/Info : UTF-8 Plain Text
    Language : English
    Default : No
    Forced : No
    Text #3
    ID : 6
    Format : UTF-8
    Codec ID : S_TEXT/UTF8
    Codec ID/Info : UTF-8 Plain Text
    Title : SDH
    Language : English
    Default : No
    Forced : No
    Menu
    00:00:00.000 : en:Chapter 01
    00:04:44.158 : en:Chapter 02
    00:13:12.333 : en:Chapter 03
    00:18:51.672 : en:Chapter 04
    00:26:40.432 : en:Chapter 05
    00:29:47.869 : en:Chapter 06
    00:37:11.145 : en:Chapter 07
    00:42:09.068 : en:Chapter 08
    00:48:23.609 : en:Chapter 09
    00:53:23.867 : en:Chapter 10
    01:00:36.049 : en:Chapter 11
    01:04:13.558 : en:Chapter 12
    01:10:27.431 : en:Chapter 13
    01:13:55.431 : en:Chapter 14
    01:20:42.045 : en:Chapter 15
    01:25:14.901 : en:Chapter 16

    x264

    x264 [info]: frame I:798 Avg QP:14.05 size: 83442
    x264 [info]: frame P:21676 Avg QP:15.43 size: 28586
    x264 [info]: frame B:110510 Avg QP:17.20 size: 8772
    x264 [info]: consecutive B-frames: 0.9% 0.8% 2.6% 8.2% 14.3% 35.1% 8.9% 5.3% 3.6% 2.7% 3.2% 3.7% 3.2% 3.5% 1.5% 2.6%
    x264 [info]: mb I I16..4: 3.7% 83.3% 13.0%
    x264 [info]: mb P I16..4: 0.3% 6.9% 0.7% P16..4: 36.5% 30.4% 19.2% 0.0% 0.0% skip: 6.0%
    x264 [info]: mb B I16..4: 0.0% 0.4% 0.0% B16..8: 36.4% 13.5% 3.9% direct: 4.3% skip:41.4% L0:48.0% L1:44.3% BI: 7.7%
    x264 [info]: 8x8 transform intra:86.5% inter:57.0%
    x264 [info]: coded y,uvDC,uvAC intra: 92.5% 64.4% 36.9% inter: 20.5% 9.2% 0.3%
    x264 [info]: i16 v,h,dc,p: 24% 14% 14% 47%
    x264 [info]: i8 v,h,dc,ddl,ddr,vr,hd,vl,hu: 14% 7% 9% 9% 13% 13% 12% 11% 11%
    x264 [info]: i4 v,h,dc,ddl,ddr,vr,hd,vl,hu: 13% 5% 3% 11% 17% 15% 13% 12% 12%
    x264 [info]: i8c dc,h,v,p: 43% 27% 20% 10%
    x264 [info]: Weighted P-Frames: Y:97.5% UV:5.0%
    x264 [info]: ref P L0: 43.0% 8.5% 16.6% 7.0% 6.3% 4.7% 4.5% 2.4% 2.4% 2.0% 2.1% 0.4% 0.0%
    x264 [info]: ref B L0: 58.2% 14.2% 8.5% 5.1% 4.0% 3.5% 2.9% 2.0% 1.1% 0.4%
    x264 [info]: ref B L1: 89.0% 11.0%
    x264 [info]: kb/s:2387.96

    Скриншоты

    с названием

    Скачать .torrent

    Скачать торрент-файл бесплатно и на максимальной скорости!

    Как скачивать? · Что такое торрент? · Рейтинг и ограничения

    !ВНИМАНИЕ!
    Сайт не распространяет и не хранит электронные версии произведений, а занимается лишь лишь предоставлением доступа к создаваемому пользователями каталогу ссылок на торрент-файлы, которые содержат только списки хеш-сумм, убедительная просьба с жалобами обращаться напрямую к пользователю. Файлы для обмена на трекере предоставлены пользователями сайта, и администрация не несёт ответственности за их содержание. Просьба не заливать файлы, защищенные авторскими правами, а также файлы нелегального содержания!


    _________________
    [Профиль] [ЛС]
    Показать сообщения:    
    Ответить на тему

    Текущее время: Сегодня, в 13:02

    Часовой пояс: GMT + 2



    Вы не можете начинать темы
    Вы не можете отвечать на сообщения
    Вы не можете редактировать свои сообщения
    Вы не можете удалять свои сообщения
    Вы не можете голосовать в опросах
    Вы не можете прикреплять файлы к сообщениям
    Вы не можете скачивать файлы