BitTorrentTracker PerecTracker.org
BitTorrentTracker PerecTracker.org
    
Регистрация  ·  Вход
 
 · 
Забыли пароль?

  • На пороге неизведанного / Познать неизведанное / Приближая неизвестное / Approaching the Unknown (Марк Элайжа Розенберг / Mark Elijah Rosenberg) [2016, США, ненаучная фантастика, драма, WEB-DLRip] MVO (ColdFilm)

    Ответить на тему
     
    Автор Сообщение

    rechyn

    Создавать темы 19-Июн-2016 22:29

           

    [Цитировать]

    На пороге неизведанного / Познать неизведанное / Приближая неизвестное / Approaching the Unknown
    Страна: США
    Жанр: Ненаучная фантастика, драма
    Год выпуска: 2016
    Продолжительность: 01:30:17
    Перевод: Любительский (многоголосый закадровый) ColdFilm
    Cубтитры: отсутствуют
    Оригинальная аудиодорожка: нет
    Режиссёр: Марк Элайжа Розенберг / Mark Elijah Rosenberg
    В ролях: Марк Стронг, Люк Уилсон, Санаа Лэтэн, Андерс Даниелсен Лье, Чарльз Бэйкер, Стивен Броуер, Стефани Гулд, Франциска Лампрехт, Аманда Ларсон, Уит К. Ли, и др.
    Описание: Подготовка к одиночному полёту на Марс, была для американского космонавта Уильяма Стэнфорта очень напряжённой, но те трудности, с которыми он столкнулся в космосе, превзошли все его ожидания... Это не тренировочный центр, тут некуда отступать. Или ты побеждаешь и выживаешь, или верную смерть получаешь...

    Качество видео: WEB-DLRip [Approaching.the.Unknown.2016..WEB-DL.1080p.mkv_nnmclub]
    Формат видео: AVI
    Vidеo: XviD 67 MPEG-4, 720x400 (16:9) 23.976 fps, ~1024 kbps avg, 0.148 bit/pixel
    Аudiо: MP-3 Joint stereo, CBR 128 kbps 2 ch, 48.0 KHz

    MediaInfo

    ОбщееПолное имя : V:\Approaching_the_Unknown_2016_WEB-DLRip_[perectracker.org].aviФормат : AVIФормат/Информация : Audio Video InterleaveРазмер файла : 750 МбайтПродолжительность : 1 ч. 30 м.Общий поток : 1161 Кбит/секНазвание фильма : Approaching_the_Unknown_2016_WEB-DLRip_[perectracker.org]Режиссёр : OGORODNIKOFFFЖанр : Ненаучная фантастика, драмаПрограмма кодирования : VirtualDubModRus 1.5.10.2 (build 2542/release)Формат оригинала/Имя : Фильмы 2016Правообладатель : [url=profile.php?mode=viewprofile&u=38116300]http://perectracker.org/profile.php?mode=viewprofil...[/url]Примечание : Рип подготовлен 19 июня 2016 года
    ВидеоИдентификатор : 0Формат : MPEG-4 VisualПрофиль формата : Advanced Simple@L5Параметр BVOP формата : 1Параметр QPel формата : НетПараметр GMC формата : Без точки переходаПараметр матрицы формата : ВыборочнаяИдентификатор кодека : DX50Идентификатор кодека/Подсказка : DivX 5Продолжительность : 1 ч. 30 м.Битрейт : 1024 Кбит/секШирина : 720 пикселейВысота : 400 пикселейСоотношение сторон : 16:9Частота кадров : 23,976 кадра/секЦветовое пространство : YUVСубдискретизация насыщенности : 4:2:0Битовая глубина : 8 битТип развёртки : ПрогрессивнаяМетод сжатия : С потерямиБит/(Пиксели*Кадры) : 0.148Размер потока : 661 Мбайт (88%)Библиотека кодирования : XviD 67
    АудиоИдентификатор : 1Формат : MPEG AudioВерсия формата : Version 1Профиль формата : Layer 3Режим : Joint stereoРасширение режима : MS StereoИдентификатор кодека : 55Идентификатор кодека/Подсказка : MP3Продолжительность : 1 ч. 30 м.Вид битрейта : ПостоянныйБитрейт : 128 Кбит/секКаналы : 2 каналаЧастота : 48,0 КГцМетод сжатия : С потерямиРазмер потока : 82,7 Мбайт (11%)Выравнивание : Соединение по промежуткамПродолжительность промежутка : 42 мс. (1,00 видеокадр)Время предзагрузки промежутка : 504 мс.Библиотека кодирования : LAME3.99

    Скриншот c названием фильма

    Скриншоты

    Скачать .torrent

    Скачать торрент-файл бесплатно и на максимальной скорости!

    Как скачивать? · Что такое торрент? · Рейтинг и ограничения

    !ВНИМАНИЕ!
    Сайт не распространяет и не хранит электронные версии произведений, а занимается лишь лишь предоставлением доступа к создаваемому пользователями каталогу ссылок на торрент-файлы, которые содержат только списки хеш-сумм, убедительная просьба с жалобами обращаться напрямую к пользователю. Файлы для обмена на трекере предоставлены пользователями сайта, и администрация не несёт ответственности за их содержание. Просьба не заливать файлы, защищенные авторскими правами, а также файлы нелегального содержания!


    _________________
    [Профиль] [ЛС]
    Показать сообщения:    
    Ответить на тему

    Текущее время: Сегодня, в 14:25

    Часовой пояс: GMT + 2



    Вы не можете начинать темы
    Вы не можете отвечать на сообщения
    Вы не можете редактировать свои сообщения
    Вы не можете удалять свои сообщения
    Вы не можете голосовать в опросах
    Вы не можете прикреплять файлы к сообщениям
    Вы не можете скачивать файлы