BitTorrentTracker PerecTracker.org
BitTorrentTracker PerecTracker.org
    
Регистрация  ·  Вход
 
 · 
Забыли пароль?

  • Эти люди / Those people (Джои Кун / Joey Kuhn) [2015, США, драма, ЛГБТ, WEBRip] VO

    Ответить на тему
     
    Автор Сообщение

    Light

    Создавать темы 19-Июн-2016 22:29

           

    [Цитировать]

    Эти люди / Those people
    Страна: США
    Жанр: драма, ЛГБТ
    Год выпуска: 2015
    Продолжительность: 01:29:07
    Перевод: Одноголосый закадровый Antonio
    Cубтитры: нет
    Оригинальная аудиодорожка: нет
    Режиссер: Джои Кун / Joey Kuhn
    В ролях: Джонатан Гордон, Джейсон Ральф, Хааз Слейман, Бриттни Лоуэр, Мэган Фэйхи, Крис Конрой, Эллисон Маки, Дэниэл Джерролл, Макс Дженкинс
    Описание: На Манхэттене, в роскошном Верхнем Ист-Сайде, молодой художник разрывается между своим скандально известным лучшим другом и многообещающим новым романом с иностранным пианистом.

    Сэмпл: https://www.sendspace.com/file/8pa856
    Качество видео: WEBRip
    Формат видео: AVI
    Видео: Xvid 720x304 23.976fps 1983kbps
    Аудио: Dolby AC3 48000Hz stereo 192kbps

    MediaInfo

    General
    Complete name : D:\TORRENTS\Эти люди.avi
    Format : AVI
    Format/Info : Audio Video Interleave
    File size : 1.36 GiB
    Duration : 1h 29mn
    Overall bit rate : 2 185 Kbps
    Video
    ID : 0
    Format : MPEG-4 Visual
    Format profile : Advanced Simple@L5
    Format settings, BVOP : 2
    Format settings, QPel : No
    Format settings, GMC : No warppoints
    Format settings, Matrix : Default (H.263)
    Codec ID : XVID
    Codec ID/Hint : XviD
    Duration : 1h 29mn
    Bit rate : 1 983 Kbps
    Width : 720 pixels
    Height : 304 pixels
    Display aspect ratio : 2.35:1
    Frame rate : 23.976 fps
    Color space : YUV
    Chroma subsampling : 4:2:0
    Bit depth : 8 bits
    Scan type : Progressive
    Compression mode : Lossy
    Bits/(Pixel*Frame) : 0.378
    Stream size : 1.23 GiB (91%)
    Writing library : XviD 64
    Audio
    ID : 1
    Format : AC-3
    Format/Info : Audio Coding 3
    Mode extension : CM (complete main)
    Format settings, Endianness : Big
    Codec ID : 2000
    Duration : 1h 29mn
    Source duration : 1h 29mn
    Bit rate mode : Constant
    Bit rate : 192 Kbps
    Channel(s) : 2 channels
    Channel positions : Front: L R
    Sampling rate : 48.0 KHz
    Bit depth : 16 bits
    Compression mode : Lossy
    Stream size : 122 MiB (9%)
    Alignment : Aligned on interleaves
    Interleave, duration : 42 ms (1.00 video frame)

    Скриншоты

    Скачать .torrent

    Скачать торрент-файл бесплатно и на максимальной скорости!

    Как скачивать? · Что такое торрент? · Рейтинг и ограничения

    !ВНИМАНИЕ!
    Сайт не распространяет и не хранит электронные версии произведений, а занимается лишь лишь предоставлением доступа к создаваемому пользователями каталогу ссылок на торрент-файлы, которые содержат только списки хеш-сумм, убедительная просьба с жалобами обращаться напрямую к пользователю. Файлы для обмена на трекере предоставлены пользователями сайта, и администрация не несёт ответственности за их содержание. Просьба не заливать файлы, защищенные авторскими правами, а также файлы нелегального содержания!


    _________________
    [Профиль] [ЛС]
    Показать сообщения:    
    Ответить на тему

    Текущее время: Сегодня, в 16:16

    Часовой пояс: GMT + 2



    Вы не можете начинать темы
    Вы не можете отвечать на сообщения
    Вы не можете редактировать свои сообщения
    Вы не можете удалять свои сообщения
    Вы не можете голосовать в опросах
    Вы не можете прикреплять файлы к сообщениям
    Вы не можете скачивать файлы