Register  ·  Log in
Forgot password?

  • Эти люди / Those people (Джои Кун / Joey Kuhn) [2015, США, драма, ЛГБТ, WEBRip] VO

    Reply to topic
    Author Message


    Post 19-Jun-2016 23:29



    Эти люди / Those people
    Страна: США
    Жанр: драма, ЛГБТ
    Год выпуска: 2015
    Продолжительность: 01:29:07
    Перевод: Одноголосый закадровый Antonio
    Cубтитры: нет
    Оригинальная аудиодорожка: нет
    Режиссер: Джои Кун / Joey Kuhn
    В ролях: Джонатан Гордон, Джейсон Ральф, Хааз Слейман, Бриттни Лоуэр, Мэган Фэйхи, Крис Конрой, Эллисон Маки, Дэниэл Джерролл, Макс Дженкинс
    Описание: На Манхэттене, в роскошном Верхнем Ист-Сайде, молодой художник разрывается между своим скандально известным лучшим другом и многообещающим новым романом с иностранным пианистом.

    Качество видео: WEBRip
    Формат видео: AVI
    Видео: Xvid 720x304 23.976fps 1983kbps
    Аудио: Dolby AC3 48000Hz stereo 192kbps


    Complete name : D:\TORRENTS\Эти люди.avi
    Format : AVI
    Format/Info : Audio Video Interleave
    File size : 1.36 GiB
    Duration : 1h 29mn
    Overall bit rate : 2 185 Kbps
    ID : 0
    Format : MPEG-4 Visual
    Format profile : Advanced Simple@L5
    Format settings, BVOP : 2
    Format settings, QPel : No
    Format settings, GMC : No warppoints
    Format settings, Matrix : Default (H.263)
    Codec ID : XVID
    Codec ID/Hint : XviD
    Duration : 1h 29mn
    Bit rate : 1 983 Kbps
    Width : 720 pixels
    Height : 304 pixels
    Display aspect ratio : 2.35:1
    Frame rate : 23.976 fps
    Color space : YUV
    Chroma subsampling : 4:2:0
    Bit depth : 8 bits
    Scan type : Progressive
    Compression mode : Lossy
    Bits/(Pixel*Frame) : 0.378
    Stream size : 1.23 GiB (91%)
    Writing library : XviD 64
    ID : 1
    Format : AC-3
    Format/Info : Audio Coding 3
    Mode extension : CM (complete main)
    Format settings, Endianness : Big
    Codec ID : 2000
    Duration : 1h 29mn
    Source duration : 1h 29mn
    Bit rate mode : Constant
    Bit rate : 192 Kbps
    Channel(s) : 2 channels
    Channel positions : Front: L R
    Sampling rate : 48.0 KHz
    Bit depth : 16 bits
    Compression mode : Lossy
    Stream size : 122 MiB (9%)
    Alignment : Aligned on interleaves
    Interleave, duration : 42 ms (1.00 video frame)


    Download .torrent

    Download free and at maximum speed!

    How to Download? · What is a torrent? · Ratings and Limitations

    The site does not extend and does not store electronic(digital) versions of products, and only gives access to a reference catalogue created by users on torrent-files which contain only lists of the hash-sums, the earnest entreaty, with complaints(abuse) to access directly to the user. Files for an exchange on tracker are given by users of a site, and the administration does not bear the responsibility for their maintenance. The request to not fill in the files protected by copyrights, and also files of the illegal maintenance!

    [Profile] [PM]
    Display posts from previous:    
    Reply to topic

    The time now is: Today 22:16

    All times are GMT + 3 Hours

    You cannot post new topics in this forum
    You cannot reply to topics in this forum
    You cannot edit your posts in this forum
    You cannot delete your posts in this forum
    You cannot vote in polls in this forum
    You cannot attach files in this forum
    You cannot download files in this forum