BitTorrentTracker PerecTracker.org
BitTorrentTracker PerecTracker.org
    
Регистрация  ·  Вход
 
 · 
Забыли пароль?

  • Другой мир 2: Эволюция / Underworld: Evolution (Лен Уайзман / Len Wiseman) [2006, США, фантастика, фэнтези, боевик, BDRip 720p] [Open Matte] Dub + MVO (Киномания) + DVO (Tycoon) + 2x AVO (Королев, Гаврилов) + Original Eng + Sub (Rus, Eng)

    Ответить на тему
     
    Автор Сообщение

    Light

    Создавать темы 19-Июн-2016 18:24

           

    [Цитировать]

    Другой мир 2: Эволюция / Underworld: Evolution [Open Matte]-Год выпуска: 2006
    Выпущено: США
    Жанр: фантастика, фэнтези, боевик
    Продолжительность: 01:46:22
    Перевод: Профессиональный (полное дублирование)
    + Профессиональный (многоголосый, закадровый) Киномания
    + Профессиональный (двухголосый, закадровый) Tycoon
    + Авторский одноголосый В.Королев
    + Авторский одноглосый А.Гаврилов
    Оригинальная звуковая дорожка: English
    Субтитры: Russian (R5), Russian (Киномания), English-Режиссер: Лен Уайзман / Len Wiseman
    В ролях: Кейт Бекинсейл, Скотт Спидман, Тони Каррен, Шэйн Бролли, Дерек Якоби, Билл Найи, Стивен Макинтош, Зита Горог, Брайан Стил, Скотт МакЭлрой, Джон Манн, Майкл Шин, Софи Майлс, Ричард Цетрон, Майк Мукатис, Кристин Даниэль, Кайя Джестал, Аттила Ловаджи, Александр Грант, Моника Гамбург, Лили Мо Шин
    О фильме: В зловещем ночном мире, скрытом от взора простых смертных, не утихает беспощадная борьба между двумя кланами властителей мрака – вампирами и оборотнями. Настала пора узнать об истоках вековой вражды, ставшей для вампира-воительницы Селин и Майкла, полуоборотня–получеловека, проклятьем и смыслом существования.
    Сражаясь с могущественными врагами из обоих кланов, древними магистрами смерти, они познают кровавую интригу и запретную любовь, чтобы в сумраке ночи раскрыть тайну своего происхождения и своего наследия. Их ждет великая битва, которая покончит с вечным противостоянием – последняя схватка ради окончания всех войн, в которой бессмертные должны понести кару и расплатиться за свои злодеяния…
    SbR!
    Релиз:
    Источник: Underworld: Evolution (2006) 1080i Blu-Ray Disk Bluebird
    Тип релиза: BDRip 720p
    Формат: MKV
    Видео: 1280x720 at 23.976 fps, crf, ~8035 kbps avg
    Аудио #01: Russian: 48 kHz, DTS, 3/2 (L,C,R,l,r) + LFE ch, ~768.00 kbps avg |Дубляж, BD CEE|
    Аудио #02: Russian: 48 kHz, DTS, 3/2 (L,C,R,l,r) + LFE ch, ~1536.00 kbps avg |Многоголосый закадровый, Киномания|
    Аудио #03: Russian: 48 kHz, AC3, 3/2 (L,C,R,l,r) + LFE ch, ~448 kbps |Двухголосый закадровый, Tycoon|
    Аудио #04: Russian: 48 kHz, DTS, 3/2 (L,C,R,l,r) + LFE ch, ~768.00 kbps avg |Одноголосый закадровый, В. Королёв|
    Аудио #05: Russian: 48 kHz, DTS, 3/2 (L,C,R,l,r) + LFE ch, ~1536.00 kbps avg |Одноголосый закадровый, А. Гаврилов|
    Аудио #06: English: 48 kHz, DTS, 3/2 (L,C,R,l,r) + LFE ch, ~1536.00 kbps avg
    Аудио #07: Ukrainian: 48 kHz, DTS, 3/2 (L,C,R,l,r) + LFE ch, ~768.00 kbps avg |Многоголосый закадровый, ICTV|
    Семпл-

    Open Matte vs OAR




    -

    Source vs Encode





    mInfo

    Формат : Matroska
    Версия формата : Version 4 / Version 2
    Размер файла : 11,3 Гбайт
    Продолжительность : 1 ч. 46 м.
    Общий поток : 15,3 Мбит/сек
    Название фильма : Underworld: Evolution (2006) - Encode by SbR
    Дата кодирования : UTC 2016-06-16 06:08:31
    Программа кодирования : mkvmerge v8.2.0 ('World of Adventure') 64bit
    Библиотека кодирования : libebml v1.3.1 + libmatroska v1.4.2
    Attachements : xlog.txt
    DURATION : 01:46:22.376000000
    NUMBER_OF_FRAMES : 153024
    NUMBER_OF_BYTES : 6403582068
    _STATISTICS_WRITING_APP : mkvmerge v8.2.0 ('World of Adventure') 64bit
    _STATISTICS_WRITING_DATE_UTC : 2016-06-16 06:08:31
    _STATISTICS_TAGS : BPS DURATION NUMBER_OF_FRAMES NUMBER_OF_BYTES
    Видео
    Идентификатор : 1
    Формат : AVC
    Формат/Информация : Advanced Video Codec
    Профиль формата : High@L4.1
    Параметр CABAC формата : Да
    Параметр ReFrames формата : 9 кадров
    Идентификатор кодека : V_MPEG4/ISO/AVC
    Продолжительность : 1 ч. 46 м.
    Битрейт : 7729 Кбит/сек
    Ширина : 1280 пикселей
    Высота : 720 пикселей
    Соотношение сторон : 16:9
    Режим частоты кадров : Постоянный
    Частота кадров : 23,976 кадра/сек
    Цветовое пространство : YUV
    Субдискретизация насыщенности : 4:2:0
    Битовая глубина : 8 бит
    Тип развёртки : Прогрессивная
    Бит/(Пиксели*Кадры) : 0.350
    Размер потока : 5,74 Гбайт (51%)
    Библиотека кодирования : x264 core 148 r2692kMod 64f4e24
    Настройки программы : cabac=1 / ref=9 / deblock=1:-2:-2 / analyse=0x3:0x133 / me=umh / subme=11 / psy=1 / fade_compensate=0.00 / psy_rd=1.00:0.00 / mixed_ref=1 / me_range=32 / chroma_me=1 / trellis=2 / 8x8dct=1 / cqm=0 / deadzone=21,11 / fast_pskip=1 / chroma_qp_offset=-2 / threads=12 / lookahead_threads=3 / sliced_threads=0 / nr=0 / decimate=1 / interlaced=0 / bluray_compat=0 / constrained_intra=0 / fgo=0 / bframes=10 / b_pyramid=2 / b_adapt=2 / b_bias=0 / direct=1 / weightb=1 / open_gop=0 / weightp=2 / keyint=250 / keyint_min=23 / scenecut=40 / intra_refresh=0 / rc_lookahead=60 / rc=crf / mbtree=0 / crf=15.0000 / qcomp=0.60 / qpmin=0 / qpmax=69 / qpstep=4 / vbv_maxrate=62500 / vbv_bufsize=78125 / crf_max=0.0 / nal_hrd=none / filler=0 / ip_ratio=1.40 / pb_ratio=1.30 / aq=1:0.80
    Язык : English
    Default : Да
    Forced : Нет
    Основные цвета : BT.709
    Характеристики трансфера : BT.709
    Коэффициенты матрицы : BT.709
    colour_range : Limited
    Аудио #1
    Идентификатор : 2
    Формат : DTS
    Формат/Информация : Digital Theater Systems
    Режим : 16
    Параметр Endianness формата : Big
    Идентификатор кодека : A_DTS
    Продолжительность : 1 ч. 46 м.
    Вид битрейта : Постоянный
    Битрейт : 755 Кбит/сек
    Каналы : 6 каналов
    Расположение каналов : Front: L C R, Side: L R, LFE
    Частота : 48,0 КГц
    Битовая глубина : 24 бит
    Метод сжатия : С потерями
    Размер потока : 574 Мбайт (5%)
    Заголовок : Dub
    Язык : Russian
    Default : Да
    Forced : Нет
    Аудио #2
    Идентификатор : 3
    Формат : DTS
    Формат/Информация : Digital Theater Systems
    Режим : 16
    Параметр Endianness формата : Big
    Идентификатор кодека : A_DTS
    Продолжительность : 1 ч. 46 м.
    Вид битрейта : Постоянный
    Битрейт : 1510 Кбит/сек
    Каналы : 6 каналов
    Расположение каналов : Front: L C R, Side: L R, LFE
    Частота : 48,0 КГц
    Битовая глубина : 24 бит
    Метод сжатия : С потерями
    Размер потока : 1,12 Гбайт (10%)
    Заголовок : Киномания
    Язык : Russian
    Default : Нет
    Forced : Нет
    Аудио #3
    Идентификатор : 4
    Формат : AC-3
    Формат/Информация : Audio Coding 3
    Расширение режима : CM (complete main)
    Параметр Endianness формата : Big
    Идентификатор кодека : A_AC3
    Продолжительность : 1 ч. 46 м.
    Вид битрейта : Постоянный
    Битрейт : 448 Кбит/сек
    Каналы : 6 каналов
    Расположение каналов : Front: L C R, Side: L R, LFE
    Частота : 48,0 КГц
    Битовая глубина : 16 бит
    Метод сжатия : С потерями
    Размер потока : 341 Мбайт (3%)
    Заголовок : Tycoon
    Язык : Russian
    Default : Нет
    Forced : Нет
    Аудио #4
    Идентификатор : 5
    Формат : DTS
    Формат/Информация : Digital Theater Systems
    Режим : 16
    Параметр Endianness формата : Big
    Идентификатор кодека : A_DTS
    Продолжительность : 1 ч. 46 м.
    Вид битрейта : Постоянный
    Битрейт : 755 Кбит/сек
    Каналы : 6 каналов
    Расположение каналов : Front: L C R, Side: L R, LFE
    Частота : 48,0 КГц
    Битовая глубина : 24 бит
    Метод сжатия : С потерями
    Размер потока : 574 Мбайт (5%)
    Заголовок : Королёв
    Язык : Russian
    Default : Нет
    Forced : Нет
    Аудио #5
    Идентификатор : 6
    Формат : DTS
    Формат/Информация : Digital Theater Systems
    Режим : 16
    Параметр Endianness формата : Big
    Идентификатор кодека : A_DTS
    Продолжительность : 1 ч. 46 м.
    Вид битрейта : Постоянный
    Битрейт : 1510 Кбит/сек
    Каналы : 6 каналов
    Расположение каналов : Front: L C R, Side: L R, LFE
    Частота : 48,0 КГц
    Битовая глубина : 24 бит
    Метод сжатия : С потерями
    Размер потока : 1,12 Гбайт (10%)
    Заголовок : Гаврилов
    Язык : Russian
    Default : Нет
    Forced : Нет
    Аудио #6
    Идентификатор : 7
    Формат : DTS
    Формат/Информация : Digital Theater Systems
    Режим : 16
    Параметр Endianness формата : Big
    Идентификатор кодека : A_DTS
    Продолжительность : 1 ч. 46 м.
    Вид битрейта : Постоянный
    Битрейт : 755 Кбит/сек
    Каналы : 6 каналов
    Расположение каналов : Front: L C R, Side: L R, LFE
    Частота : 48,0 КГц
    Битовая глубина : 24 бит
    Метод сжатия : С потерями
    Размер потока : 574 Мбайт (5%)
    Заголовок : ICTV
    Язык : Ukrainian
    Default : Нет
    Forced : Нет
    Аудио #7
    Идентификатор : 8
    Формат : DTS
    Формат/Информация : Digital Theater Systems
    Режим : 16
    Параметр Endianness формата : Big
    Идентификатор кодека : A_DTS
    Продолжительность : 1 ч. 46 м.
    Вид битрейта : Постоянный
    Битрейт : 1509 Кбит/сек
    Каналы : 6 каналов
    Расположение каналов : Front: L C R, Side: L R, LFE
    Частота : 48,0 КГц
    Битовая глубина : 16 бит
    Метод сжатия : С потерями
    Размер потока : 1,12 Гбайт (10%)
    Язык : English
    Default : Нет
    Forced : Нет
    Текст #1
    Идентификатор : 9
    Формат : UTF-8
    Идентификатор кодека : S_TEXT/UTF8
    Идентификатор кодека/Информация : UTF-8 Plain Text
    Заголовок : R5
    Язык : Russian
    Default : Нет
    Forced : Нет
    Текст #2
    Идентификатор : 10
    Формат : UTF-8
    Идентификатор кодека : S_TEXT/UTF8
    Идентификатор кодека/Информация : UTF-8 Plain Text
    Заголовок : Киномания
    Язык : Russian
    Default : Нет
    Forced : Нет
    Текст #3
    Идентификатор : 11
    Формат : UTF-8
    Идентификатор кодека : S_TEXT/UTF8
    Идентификатор кодека/Информация : UTF-8 Plain Text
    Язык : English
    Default : Нет
    Forced : Нет
    Меню
    00:00:00.000 : :Start
    00:09:46.707 : :The Last Hope
    00:12:21.321 : :Respect the Elders
    00:15:38.936 : :No Going Back
    00:17:18.326 : :Carving a New Course
    00:23:12.387 : :Can't Bear the Hunger
    00:29:31.601 : :Road Rage Reunion
    00:33:48.441 : :A Burning Need
    00:38:58.208 : :Leaving No Trace
    00:41:18.681 : :Relic of Memory
    00:43:32.106 : :The Exile's Snare
    00:47:21.335 : :Time for Answers
    00:49:12.155 : :Truth and Legend
    00:56:44.148 : :Impailing Interrogation
    01:00:00.510 : :Father of the War
    01:03:09.114 : :Bleeding the Map
    01:05:49.150 : :Pain of Helplessness
    01:07:14.902 : :Divine Aspiration
    01:10:32.265 : :The Future Begins
    01:13:43.375 : :The Past Fades Away
    01:15:58.216 : :A Forgotton Chamber
    01:17:17.255 : :A Submerged Entry
    01:20:18.185 : :Brothers Reunited
    01:21:26.502 : :"We're Too Late."
    01:25:30.081 : :Explosive Encounter
    01:28:43.480 : :Outnumbered
    01:32:11.230 : :A Monstrous Duel
    01:35:54.121 : :Light of New Hope
    -
    Скачать .torrent

    Скачать торрент-файл бесплатно и на максимальной скорости!

    Как скачивать? · Что такое торрент? · Рейтинг и ограничения

    !ВНИМАНИЕ!
    Сайт не распространяет и не хранит электронные версии произведений, а занимается лишь лишь предоставлением доступа к создаваемому пользователями каталогу ссылок на торрент-файлы, которые содержат только списки хеш-сумм, убедительная просьба с жалобами обращаться напрямую к пользователю. Файлы для обмена на трекере предоставлены пользователями сайта, и администрация не несёт ответственности за их содержание. Просьба не заливать файлы, защищенные авторскими правами, а также файлы нелегального содержания!


    _________________
    [Профиль] [ЛС]
    Показать сообщения:    
    Ответить на тему

    Текущее время: Сегодня, в 00:27

    Часовой пояс: GMT + 2



    Вы не можете начинать темы
    Вы не можете отвечать на сообщения
    Вы не можете редактировать свои сообщения
    Вы не можете удалять свои сообщения
    Вы не можете голосовать в опросах
    Вы не можете прикреплять файлы к сообщениям
    Вы не можете скачивать файлы