BitTorrentTracker PerecTracker.org
BitTorrentTracker PerecTracker.org
    
Регистрация  ·  Вход
 
 · 
Забыли пароль?

  • Лето белой воды / Лето у белой воды / Ревущие воды / White Water Summer (Джефф Блекнер / Jeff Bleckner) [1987, США, драма, приключения, WEB-DL 720p] 3x MVO + Sub Rus, Eng + Original Eng

    Ответить на тему
     
    Автор Сообщение

    Light

    Создавать темы 19-Июн-2016 18:24

           

    [Цитировать]

    Лето белой воды / White Water Summer
    -Страна: США
    Жанр: драма, приключения
    Год выпуска: 1987
    Продолжительность: 01:29:42-Перевод 1: Профессиональный (многоголосый закадровый) ОРТ
    Перевод 2: Профессиональный (многоголосый закадровый) НТВ
    Перевод 3: Профессиональный (многоголосый закадровый) СТС
    Cубтитры: русские, английские
    Оригинальная аудиодорожка: английский-Режиссер: Джефф Блекнер / Jeff Bleckner-В ролях: Кевин Бейкон, Шон Остин, Джонатан Уорд, К. С. Мартел, Мэтт Адлер, Чарльз Сиберт, Кэролайн МакУильямс
    Описание:
    Драма, обильно сдобренная юмором, в которой о событиях последнего лета своего детства весело и иронично по отношению к самому себе - мальчику - рассказывает заметно повзрослевший, но сохранивший запал юношеского оптимизма главный герой по имени Алан. Мы то и дело переносимся вместе с ним из времени сегодняшнего в дни, когда Алан вместе с тремя другими, более старшими по возрасту подростками под руководством молодого инструктора Вика отправился в поход. Лес, горы, бурная река, мост над пропастью...-Сэмпл: Скачать-Тип релиза: WEB-DL 720p
    Контейнер: MKV-Видео: 1280x542 (2.35:1); 4 059 Kbps; 23.976 fps; 0.244 bpp
    Аудио 1: Russian; AC3; 48.0 KHz; 2ch; 192 Kbps MVO ОРТ
    Аудио 2: Russian; AC3; 48.0 KHz; 2ch; 192 Kbps MVO НТВ
    Аудио 3: Russian; AC3; 48.0 KHz; 2ch; 192 Kbps MVO СТС
    Аудио 4: English; AC3; 48.0 KHz; 6ch; 384 Kbps
    Аудио 5: English; AAC; 48.0 KHz; 2ch; ~160 Kbps

    MediaInfo

    Format : Matroska
    Format version : Version 4 / Version 2
    File size : 3.23 GiB
    Duration : 1h 29mn
    Overall bit rate : 5 149 Kbps
    Movie name : White.Water.Summer.1987.720p.WEB-DL.AAC2.0.H264-FGT
    Encoded date : UTC 2016-06-17 06:32:27
    Writing application : mkvmerge v8.3.0 ('Over the Horizon') 64bit
    Writing library : libebml v1.3.1 + libmatroska v1.4.2
    Attachments : poster.jpg
    Video
    ID : 1
    Format : AVC
    Format/Info : Advanced Video Codec
    Format profile : Main@L3.1
    Format settings, CABAC : No
    Format settings, ReFrames : 2 frames
    Codec ID : V_MPEG4/ISO/AVC
    Duration : 1h 29mn
    Bit rate : 4 059 Kbps
    Width : 1 280 pixels
    Height : 542 pixels
    Display aspect ratio : 2.35:1
    Frame rate mode : Constant
    Frame rate : 23.976 (23976/1000) fps
    Color space : YUV
    Chroma subsampling : 4:2:0
    Bit depth : 8 bits
    Scan type : Progressive
    Bits/(Pixel*Frame) : 0.244
    Stream size : 2.54 GiB (79%)
    Language : English
    Default : Yes
    Forced : No
    Color range : Limited
    Color primaries : BT.709
    Transfer characteristics : BT.709
    Matrix coefficients : BT.709
    Audio #1
    ID : 2
    Format : AC-3
    Format/Info : Audio Coding 3
    Mode extension : CM (complete main)
    Format settings, Endianness : Big
    Codec ID : A_AC3
    Duration : 1h 29mn
    Bit rate mode : Constant
    Bit rate : 192 Kbps
    Channel(s) : 2 channels
    Channel positions : Front: L R
    Sampling rate : 48.0 KHz
    Frame rate : 31.250 fps (1536 spf)
    Compression mode : Lossy
    Stream size : 123 MiB (4%)
    Title : MVO ОРТ
    Language : Russian
    Default : Yes
    Forced : No
    Audio #2
    ID : 3
    Format : AC-3
    Format/Info : Audio Coding 3
    Mode extension : CM (complete main)
    Format settings, Endianness : Big
    Codec ID : A_AC3
    Duration : 1h 29mn
    Bit rate mode : Constant
    Bit rate : 192 Kbps
    Channel(s) : 2 channels
    Channel positions : Front: L R
    Sampling rate : 48.0 KHz
    Frame rate : 31.250 fps (1536 spf)
    Compression mode : Lossy
    Stream size : 123 MiB (4%)
    Title : MVO НТВ
    Language : Russian
    Default : No
    Forced : No
    Audio #3
    ID : 4
    Format : AC-3
    Format/Info : Audio Coding 3
    Mode extension : CM (complete main)
    Format settings, Endianness : Big
    Codec ID : A_AC3
    Duration : 1h 29mn
    Bit rate mode : Constant
    Bit rate : 192 Kbps
    Channel(s) : 2 channels
    Channel positions : Front: L R
    Sampling rate : 48.0 KHz
    Frame rate : 31.250 fps (1536 spf)
    Compression mode : Lossy
    Stream size : 123 MiB (4%)
    Title : MVO СТС
    Language : Russian
    Default : No
    Forced : No
    Audio #4
    ID : 5
    Format : AC-3
    Format/Info : Audio Coding 3
    Mode extension : CM (complete main)
    Format settings, Endianness : Big
    Codec ID : A_AC3
    Duration : 1h 29mn
    Bit rate mode : Constant
    Bit rate : 384 Kbps
    Channel(s) : 6 channels
    Channel positions : Front: L C R, Side: L R, LFE
    Sampling rate : 48.0 KHz
    Frame rate : 31.250 fps (1536 spf)
    Compression mode : Lossy
    Stream size : 246 MiB (7%)
    Language : English
    Default : No
    Forced : No
    Audio #5
    ID : 6
    Format : AAC
    Format/Info : Advanced Audio Codec
    Format profile : LC
    Codec ID : A_AAC
    Duration : 1h 29mn
    Bit rate : 129 Kbps
    Channel(s) : 2 channels
    Channel positions : Front: L R
    Sampling rate : 48.0 KHz
    Frame rate : 46.875 fps (1024 spf)
    Compression mode : Lossy
    Stream size : 82.4 MiB (2%)
    Language : English
    Default : No
    Forced : No
    Text #1
    ID : 7
    Format : UTF-8
    Codec ID : S_TEXT/UTF8
    Codec ID/Info : UTF-8 Plain Text
    Duration : 1h 24mn
    Bit rate : 81 bps
    Count of elements : 844
    Stream size : 50.9 KiB (0%)
    Language : Russian
    Default : No
    Forced : No
    Text #2
    ID : 8
    Format : UTF-8
    Codec ID : S_TEXT/UTF8
    Codec ID/Info : UTF-8 Plain Text
    Duration : 1h 28mn
    Bit rate : 81 bps
    Count of elements : 997
    Stream size : 53.0 KiB (0%)
    Language : English
    Default : No
    Forced : No

    Скриншоты

    Скачать .torrent

    Скачать торрент-файл бесплатно и на максимальной скорости!

    Как скачивать? · Что такое торрент? · Рейтинг и ограничения

    !ВНИМАНИЕ!
    Сайт не распространяет и не хранит электронные версии произведений, а занимается лишь лишь предоставлением доступа к создаваемому пользователями каталогу ссылок на торрент-файлы, которые содержат только списки хеш-сумм, убедительная просьба с жалобами обращаться напрямую к пользователю. Файлы для обмена на трекере предоставлены пользователями сайта, и администрация не несёт ответственности за их содержание. Просьба не заливать файлы, защищенные авторскими правами, а также файлы нелегального содержания!


    _________________
    [Профиль] [ЛС]
    Показать сообщения:    
    Ответить на тему

    Текущее время: Сегодня, в 19:58

    Часовой пояс: GMT + 2



    Вы не можете начинать темы
    Вы не можете отвечать на сообщения
    Вы не можете редактировать свои сообщения
    Вы не можете удалять свои сообщения
    Вы не можете голосовать в опросах
    Вы не можете прикреплять файлы к сообщениям
    Вы не можете скачивать файлы