Register  ·  Log in
Forgot password?

  • Мобильник / Cell (Тод «Кип» Уильямс / Tod «Kip» Williams) [2016, США, ужасы, фантастика, триллер, WEB-DLRip] VO (А. Матвеев)

    Reply to topic
    Author Message


    Post 19-Jun-2016 19:24



    Мобильник / Cell
    Страна: США
    Жанр: ужасы, фантастика, триллер
    Год выпуска: 2016
    Продолжительность: 01:38:06
    Перевод: Одноголосый закадровый А. Матвеев
    Cубтитры: нет
    Режиссер: Тод «Кип» Уильямс / Tod «Kip» Williams
    В ролях: Оуэн Тиг, Сэмюэл Л. Джексон, Джон Кьюсак, Изабель Фурман, Стейси Кич, Джошуа Микель, Ллойд Кауфман, Алекс тер Авест, Майкл Бисли, Гриффин Фриман
    Описание: История художника Клайтона Ридделла, становящегося свидетелем разрушительного действия некоего опасного импульса, источающегося сотовыми телефонами (скорость его распространения невероятно высока) и превращающего попавших под его влияние людей в безумцев. В компании нескольких незараженных героев он отправляется на поиски своей супруги и сына, чтобы выяснить, удалось ли спастись его семье.
    Качество видео: WEB-DLRip
    Формат видео: AVI
    Видео: 720x304 (2.37:1), 23.976 fps, XviD build 73 ~1679 kbps avg, 0.32 bit/pixel
    Аудио: 48 kHz, AC3 Dolby Digital, 3/2 (L,C,R,l,r) + LFE ch, ~448 kbps - AVO А. Матвеев
    Аудио 2: 48 kHz, AC3 Dolby Digital, 3/2 (L,C,R,l,r) + LFE ch, ~448 kbps - AVO А. Матвеев (нецензурный) | отдельно


    Complete name : E:\Zona Downloads\Cell.2016.WEB-DLRip\Cell.2016.WEB-DLRip.MegaPeer.avi
    Format : AVI
    Format/Info : Audio Video Interleave
    File size : 1.46 GiB
    Duration : 1h 38mn
    Overall bit rate : 2 135 Kbps
    ID : 0
    Format : MPEG-4 Visual
    Format profile : Advanced Simple@L5
    Format settings, BVOP : 1
    Format settings, QPel : No
    Format settings, GMC : No warppoints
    Format settings, Matrix : Custom
    Codec ID : XVID
    Codec ID/Hint : XviD
    Duration : 1h 38mn
    Bit rate : 1 680 Kbps
    Width : 720 pixels
    Height : 304 pixels
    Display aspect ratio : 2.35:1
    Frame rate : 23.976 fps
    Color space : YUV
    Chroma subsampling : 4:2:0
    Bit depth : 8 bits
    Scan type : Progressive
    Compression mode : Lossy
    Bits/(Pixel*Frame) : 0.320
    Stream size : 1.15 GiB (79%)
    Writing library : XviD 73
    ID : 1
    Format : AC-3
    Format/Info : Audio Coding 3
    Mode extension : CM (complete main)
    Format settings, Endianness : Big
    Codec ID : 2000
    Duration : 1h 38mn
    Bit rate mode : Constant
    Bit rate : 448 Kbps
    Channel(s) : 6 channels
    Channel positions : Front: L C R, Side: L R, LFE
    Sampling rate : 48.0 KHz
    Bit depth : 16 bits
    Compression mode : Lossy
    Stream size : 314 MiB (21%)
    Alignment : Aligned on interleaves
    Interleave, duration : 64 ms (1.53 video frames)
    Interleave, preload duration : 192 ms
    Title : AVO

    Скриншот c названием фильма


    Download .torrent

    Download free and at maximum speed!

    How to Download? · What is a torrent? · Ratings and Limitations

    The site does not extend and does not store electronic(digital) versions of products, and only gives access to a reference catalogue created by users on torrent-files which contain only lists of the hash-sums, the earnest entreaty, with complaints(abuse) to access directly to the user. Files for an exchange on tracker are given by users of a site, and the administration does not bear the responsibility for their maintenance. The request to not fill in the files protected by copyrights, and also files of the illegal maintenance!

    [Profile] [PM]
    Display posts from previous:    
    Reply to topic

    The time now is: Today 00:45

    All times are GMT + 3 Hours

    You cannot post new topics in this forum
    You cannot reply to topics in this forum
    You cannot edit your posts in this forum
    You cannot delete your posts in this forum
    You cannot vote in polls in this forum
    You cannot attach files in this forum
    You cannot download files in this forum