BitTorrentTracker PerecTracker.org
BitTorrentTracker PerecTracker.org
    
Регистрация  ·  Вход
 
 · 
Забыли пароль?

  • Молчание церкви / Le silence des eglises (Эдвин Бэйли / Edwin Baily) [2013, Франция, драма, гей-тема, DVB] Original (Fre) + Sub (Rus, Eng, Fre, Deu)

    Ответить на тему
     
    Автор Сообщение

    Light

    Создавать темы 19-Июн-2016 18:24

           

    [Цитировать]

    Молчание церкви
    Le silence des églises-Страна: Франция
    Жанр: драма, гей-тема
    Год выпуска: 2013
    Продолжительность: 01:39:32Перевод: Субтитры (русский перевод И.Рыбкиной, Éclair Group)
    Cубтитры: русские, английские, французские, немецкие, нидерландские
    Оригинальная аудиодорожка: французский
    Режиссер: Эдвин Бэйли / Edwin Baily
    В ролях: Робинсон Стевенен / Robinson Stévenin (Gabriel Goffin, adulte), Флориан Вижиланте / Florian Vigilante (Gabriel Goffin, enfant), Робен Ренуччи / Robin Renucci (André Vince), Сандрин Бланк / Sandrine Blancke (Mlle Simart), Фабрис Бутик / Fabrice Boutique (Joel), Эрик Де Старк / Eric De Staercke (Monseigneur Peyrac), Астрид Ветналл / Astrid Whettnall (Sophie Goffin)
    Описание: Фильм основан на реальных событиях. 12-летний Габриель, певчий в хоре, подвергался постоянному сексуальному насилию со стороны отца Андре Винсея, директора католической школы, в которой он учится. 15 лет спустя Габриель все еще страдает от причиненного ему зла и отправляется в город его юности с желанием отомстить, рассказав правду…
    Доп. информация: Hot Bird (13.0°E) TV5MONDE Europe DVB-S. На территории РФ возрастное ограничение 18+.
    Награды: 3 награды Festival des creations televisuelles de Luchon 2013 (лучший сценарий, лучшая музыка, приз зрительских симпатий за лучшую драму).

    Качество видео: DVB
    Формат видео: TS
    Видео: MPEG Video 2, 720x576@1024x576 (16:9), 25 fps, ~2881 kbps avg, 0.278 bit/pixel
    Аудио: MPEG Audio 2, 2 ch, 48 kHz, 192 kbps - французский
    Формат субтитров: softsub (SRT)

    Пример субтитров

    100:00:15,417 --> 00:00:18,417МОЛЧАНИЕ ЦЕРКВИ
    200:00:39,826 --> 00:00:42,826Несильно.
    300:00:50,338 --> 00:00:53,338Еще-еще.Теперь выправляй.
    400:00:53,943 --> 00:00:56,943На себя тяни.
    500:00:58,582 --> 00:01:00,905От себя немного.
    600:01:00,905 --> 00:01:02,821Теперь на себя.
    700:01:02,821 --> 00:01:05,821А теперь держи курс.
    800:01:27,862 --> 00:01:30,502-Хорошо поплавали?-Да.
    900:01:30,502 --> 00:01:32,350-Тебе понравилось?-Да.
    1000:01:32,350 --> 00:01:33,343Здорово!
    1100:01:33,343 --> 00:01:36,218Иди сюда!
    1200:01:36,218 --> 00:01:37,938-Спасибо.-Не за что.
    1300:01:37,938 --> 00:01:39,183Через 2 недели?
    1400:01:39,183 --> 00:01:41,861-Если ты не против.-Договорились.
    1500:01:41,861 --> 00:01:44,861-Счастливого пути.-Пока.
    1600:01:46,863 --> 00:01:49,863-До свидания.-Пока.
    1700:01:51,589 --> 00:01:53,626Заедем к бабуле?
    1800:01:53,626 --> 00:01:56,460А мы не опоздаем?
    1900:01:56,460 --> 00:01:59,460Мы ненадолго заедем.Только поздороваться.
    2000:02:00,463 --> 00:02:02,621-Ей будет приятно.-Хорошо.

    MediaInfo

    GeneralUnique ID : 180041262983604627338082397777316864543 (0x8772AF9B1C2ED2999A216548FF28E21F)Complete name : [apreder]Le_silence_des_eglises(2013)DVB.mkvFormat : MatroskaFormat version : Version 2File size : 2.18 GiBDuration : 1h 39mnOverall bit rate : 3 136 KbpsMovie name : Le silence des eglisesReleased date : 2013-04-10Encoded date : UTC 2016-06-18 12:25:05Writing application : mkvmerge v9.2.0 ('Photograph') 64bitWriting library : libebml v1.3.3 + libmatroska v1.4.4Cover : YesAttachments : cover.jpg / cover_small.jpgACTOR : Robinson Stevenin, Robin RenucciDIRECTOR : Edwin BailyGENRE : DramaIMDB : tt2816290KEYWORDS : perectracker.orgLAW_RATING : 18+
    VideoID : 1Format : MPEG VideoFormat version : Version 2Format profile : Main@MainFormat settings, BVOP : YesFormat settings, Matrix : CustomFormat settings, GOP : M=4, N=12Format settings, picture structure : FrameCodec ID : V_MPEG2Codec ID/Info : MPEG 1 or 2 VideoDuration : 1h 39mnBit rate : 2 881 KbpsMaximum bit rate : 3 200 KbpsWidth : 720 pixelsHeight : 576 pixelsDisplay aspect ratio : 16:9Frame rate mode : ConstantFrame rate : 25.000 fpsStandard : PALColor space : YUVChroma subsampling : 4:2:0Bit depth : 8 bitsScan type : InterlacedScan order : Top Field FirstCompression mode : LossyBits/(Pixel*Frame) : 0.278Stream size : 2.00 GiB (92%)Default : YesForced : No
    AudioID : 2Format : MPEG AudioFormat version : Version 1Format profile : Layer 2Mode : Joint stereoMode extension : Intensity Stereo + MS StereoCodec ID : A_MPEG/L2Codec ID/Hint : MP2Duration : 1h 39mnBit rate mode : ConstantBit rate : 192 KbpsChannel(s) : 2 channelsSampling rate : 48.0 KHzCompression mode : LossyStream size : 137 MiB (6%)Language : FrenchDefault : YesForced : No
    Text #1ID : 3Format : UTF-8Codec ID : S_TEXT/UTF8Codec ID/Info : UTF-8 Plain TextLanguage : RussianDefault : NoForced : No
    Text #2ID : 4Format : UTF-8Codec ID : S_TEXT/UTF8Codec ID/Info : UTF-8 Plain TextLanguage : EnglishDefault : NoForced : No
    Text #3ID : 5Format : UTF-8Codec ID : S_TEXT/UTF8Codec ID/Info : UTF-8 Plain TextLanguage : FrenchDefault : NoForced : No
    Text #4ID : 6Format : UTF-8Codec ID : S_TEXT/UTF8Codec ID/Info : UTF-8 Plain TextLanguage : GermanDefault : NoForced : No
    Text #5ID : 7Format : UTF-8Codec ID : S_TEXT/UTF8Codec ID/Info : UTF-8 Plain TextLanguage : DutchDefault : NoForced : No

    Скриншот c названием фильма

    Скриншоты

    Резервные скриншоты


    -
    Скачать .torrent

    Скачать торрент-файл бесплатно и на максимальной скорости!

    Как скачивать? · Что такое торрент? · Рейтинг и ограничения

    !ВНИМАНИЕ!
    Сайт не распространяет и не хранит электронные версии произведений, а занимается лишь лишь предоставлением доступа к создаваемому пользователями каталогу ссылок на торрент-файлы, которые содержат только списки хеш-сумм, убедительная просьба с жалобами обращаться напрямую к пользователю. Файлы для обмена на трекере предоставлены пользователями сайта, и администрация не несёт ответственности за их содержание. Просьба не заливать файлы, защищенные авторскими правами, а также файлы нелегального содержания!


    _________________
    [Профиль] [ЛС]
    Показать сообщения:    
    Ответить на тему

    Текущее время: Сегодня, в 07:09

    Часовой пояс: GMT + 2



    Вы не можете начинать темы
    Вы не можете отвечать на сообщения
    Вы не можете редактировать свои сообщения
    Вы не можете удалять свои сообщения
    Вы не можете голосовать в опросах
    Вы не можете прикреплять файлы к сообщениям
    Вы не можете скачивать файлы