BitTorrentTracker PerecTracker.org
BitTorrentTracker PerecTracker.org
    
Регистрация  ·  Вход
 
 · 
Забыли пароль?

  • Марсианин / The Martian (Ридли Скотт / Ridley Scott) [2015, США, Великобритания, фантастика, приключения, HDRip] [Расширенная версия] Dub + DVO (в местах без дубляжа)

    Ответить на тему
     
    Автор Сообщение

    Light

    Создавать темы 19-Июн-2016 18:24

           

    [Цитировать]

    Марсианин / The Martian
    Страна: США, Великобритания
    Жанр: Фантастика, приключения
    Год выпуска: 2015
    Продолжительность: 02:31:20
    Перевод: Профессиональный (дублированный) + DVO Omskbird records в местах без дубляжа
    Cубтитры: отсутствуют
    Оригинальная аудиодорожка: нет
    Режиссёр: Ридли Скотт / Ridley Scott
    В ролях: Мэтт Дэймон, Джессика Честейн, Кристен Уиг, Кейт Мара, Майкл Пенья, Джефф Дэниэлс, Шон Бин, Маккензи Дэвис, Себастьян Стэн, Дональд Гловер, Чьюител Эджиофор, Наоми Скотт, Аксель Хенни, Джонатан Арис, Николетта Барабаш, и др.
    Описание: После сильнейшей песчаной бури на Марсе, коллеги американского космонавта Марка Уотни, посчитали его погибшим и покинули красную планету. Но Уотни выжил и оказался совсем один. Марк не падает духом, он проявляет все свои изобретательские и рационализаторские способности, чтобы понавыдумывать способов сообщить на Землю о своём бедственном положении... Теперь за миллионы километров от Марса, международные сотрудники космических служб и агенств, и лучшие учёные умы из разных стран мира, прилагают невероятные усилия, чтобы вернуть "марсианина" домой, а члены его экипажа организовывают экспедицию на Марс со спасительной миссией. И вот, весь мир затаив дыхание, следит за процедурой возвращением Уотни на родную матушку-землю...
    Дополнительная информация: расширенная версия длиннее театральной около 10 минут.

    Качество видео: HDRip
    Формат видео: AVI
    Video: XviD 50 MPEG-4, 720x304 (2.35:1) 23.976 fps, ~1604 kbps avg, 0.306 bit/pixel
    Аudio: AC-3 Dolby Digital, CBR 448 kbps 6 ch (Front: L C R, Side: L R, LFE) 48.0 KHz

    MediaInfo

    ОбщееПолное имя : Р:\The_Martian_2015_HDRip_[perectracker.org].aviФормат : AVIФормат/Информация : Audio Video InterleaveПрофиль формата : OpenDMLРазмер файла : 2,18 ГбайтПродолжительность : 2 ч. 31 м.Общий поток : 2064 Кбит/секПрограмма кодирования : VirtualDubMod 1.5.10.2 (build 2540/release)Библиотека кодирования : VirtualDubMod build 2540/release
    ВидеоИдентификатор : 0Формат : MPEG-4 VisualПрофиль формата : Advanced Simple@L5Параметр BVOP формата : 2Параметр QPel формата : НетПараметр GMC формата : Без точки переходаПараметр матрицы формата : ВыборочнаяИдентификатор кодека : XVIDИдентификатор кодека/Подсказка : XviDПродолжительность : 2 ч. 31 м.Битрейт : 1604 Кбит/секШирина : 720 пикселейВысота : 304 пикселяСоотношение сторон : 2,35:1Частота кадров : 23,976 кадра/секЦветовое пространство : YUVСубдискретизация насыщенности : 4:2:0Битовая глубина : 8 битТип развёртки : ПрогрессивнаяМетод сжатия : С потерямиБит/(Пиксели*Кадры) : 0.306Размер потока : 1,70 Гбайт (78%)Библиотека кодирования : XviD 1.2.1 (UTC 2008-12-04)
    АудиоИдентификатор : 1Формат : AC-3Формат/Информация : Audio Coding 3Расширение режима : CM (complete main)Параметр Endianness формата : BigИдентификатор кодека : 2000Продолжительность : 2 ч. 31 м.Вид битрейта : ПостоянныйБитрейт : 448 Кбит/секКаналы : 6 каналовРасположение каналов : Front: L C R, Side: L R, LFEЧастота : 48,0 КГцБитовая глубина : 16 битМетод сжатия : С потерямиРазмер потока : 485 Мбайт (22%)Выравнивание : Разделение по промежуткамПродолжительность промежутка : 42 мс. (1,00 видеокадр)Время предзагрузки промежутка : 500 мс.

    Скриншот c названием фильма

    Скриншоты

    Время раздачи - по возможности.
    Скачать .torrent

    Скачать торрент-файл бесплатно и на максимальной скорости!

    Как скачивать? · Что такое торрент? · Рейтинг и ограничения

    !ВНИМАНИЕ!
    Сайт не распространяет и не хранит электронные версии произведений, а занимается лишь лишь предоставлением доступа к создаваемому пользователями каталогу ссылок на торрент-файлы, которые содержат только списки хеш-сумм, убедительная просьба с жалобами обращаться напрямую к пользователю. Файлы для обмена на трекере предоставлены пользователями сайта, и администрация не несёт ответственности за их содержание. Просьба не заливать файлы, защищенные авторскими правами, а также файлы нелегального содержания!


    _________________
    [Профиль] [ЛС]
    Показать сообщения:    
    Ответить на тему

    Текущее время: Сегодня, в 05:13

    Часовой пояс: GMT + 2



    Вы не можете начинать темы
    Вы не можете отвечать на сообщения
    Вы не можете редактировать свои сообщения
    Вы не можете удалять свои сообщения
    Вы не можете голосовать в опросах
    Вы не можете прикреплять файлы к сообщениям
    Вы не можете скачивать файлы