BitTorrentTracker PerecTracker.org
BitTorrentTracker PerecTracker.org
    
Регистрация  ·  Вход
 
 · 
Забыли пароль?

  • Невидимка / Невидимый мальчик / Il ragazzo invisibile (Габриэле Сальваторес / Gabriele Salvatores) [2014, Италия, фэнтези, приключения, DVDRip] VO + Sub Rus + Original Ita

    Ответить на тему
     
    Автор Сообщение

    Light

    Создавать темы 19-Июн-2016 06:03

           

    [Цитировать]

    Невидимка / Невидимый мальчик / Il ragazzo invisibile
    Страна: Италия
    Жанр: фэнтези, приключения
    Год выпуска: 2014
    Продолжительность: 01:41:25
    Перевод: Одноголосый закадровый
    Cубтитры: русские
    Оригинальная аудиодорожка: итальянский
    Режиссер: Габриэле Сальваторес / Gabriele Salvatores
    В ролях: Людовико Джирарделло, Валериа Голино, Фабрицио Бентивольо, Кристо Живков, Ноа Затта, Рикардо Гаспарини, Ксения Раппопорт
    Описание: Микеле — обычный школьник...ну, был обычным, пока не выяснил, что он может становиться невидимым и силой мысли двигать предметы. Пытаясь понять, откуда у него такие способности, он узнает, что он сам и его родители - «сверхлюди» - результат экспериментов, которые проводят на секретной базе в Сибири коварные военные с целью создать армию из суперлюдей. Но это еще не все. Оказывается, за Микеле охотится целая толпа шпионов, которые должны похитить его и доставить в Россию для продолжения экспериментов...
    Сэмпл: http://multi-up.com/1106205
    Качество видео: DVDRip
    Формат видео: AVI
    Видео: 720x300 (2.40:1), 23.976 fps, XviD build 64 ~1500 kbps avg, 0.29 bit/pixel
    Аудио 1: 48 kHz, AC3 Dolby Digital, 2/0 (L,R) ch, ~224.00 kbps avg(Русский)
    Аудио 2: 48 kHz, AC3 Dolby Digital, 3/2 (L,C,R,l,r) + LFE ch, ~448.00 kbps avg(Итальянский)
    Формат субтитров: softsub (SRT)
    Доп. информация о субтитрах: Русские внешние (М.Васильев)

    MediaInfo

    Общее
    Полное имя : F:\С моей озвучкой\Невидимка\Il ragazzo invisibile.avi
    Формат : AVI
    Формат/Информация : Audio Video Interleave
    Размер файла : 1,55 Гбайт
    Продолжительность : 1 ч. 41 м.
    Общий поток : 2187 Кбит/сек
    Название фильма : ENCODED for ilcorsaroverde.org
    Режиссёр : MIRCrew by robbyrs
    Программа кодирования : VirtualDubModRus 1.5.10.2 (build 2542/release)
    Библиотека кодирования : VirtualDubMod build 2542/release
    Видео
    Идентификатор : 0
    Формат : MPEG-4 Visual
    Профиль формата : Simple@L3
    Параметр BVOP формата : Нет
    Параметр QPel формата : Нет
    Параметр GMC формата : Без точки перехода
    Параметр матрицы формата : Default (H.263)
    Идентификатор кодека : XVID
    Идентификатор кодека/Подсказка : XviD
    Продолжительность : 1 ч. 41 м.
    Битрейт : 1501 Кбит/сек
    Ширина : 720 пикселей
    Высота : 300 пикселей
    Соотношение сторон : 2,40:1
    Частота кадров : 23,976 кадра/сек
    Цветовое пространство : YUV
    Субдискретизация насыщенности : 4:2:0
    Битовая глубина : 8 бит
    Тип развёртки : Прогрессивная
    Метод сжатия : С потерями
    Бит/(Пиксели*Кадры) : 0.290
    Размер потока : 1,06 Гбайт (69%)
    Библиотека кодирования : XviD 64
    Аудио #1
    Идентификатор : 1
    Формат : AC-3
    Формат/Информация : Audio Coding 3
    Расширение режима : CM (complete main)
    Параметр Endianness формата : Big
    Идентификатор кодека : 2000
    Продолжительность : 1 ч. 41 м.
    Вид битрейта : Постоянный
    Битрейт : 224 Кбит/сек
    Каналы : 2 канала
    Расположение каналов : Front: L R
    Частота : 48,0 КГц
    Битовая глубина : 16 бит
    Метод сжатия : С потерями
    Размер потока : 162 Мбайт (10%)
    Выравнивание : Разделение по промежуткам
    Продолжительность промежутка : 42 мс. (1,00 видеокадр)
    Время предзагрузки промежутка : 500 мс.
    Аудио #2
    Идентификатор : 2
    Формат : AC-3
    Формат/Информация : Audio Coding 3
    Расширение режима : CM (complete main)
    Параметр Endianness формата : Big
    Идентификатор кодека : 2000
    Продолжительность : 1 ч. 41 м.
    Вид битрейта : Постоянный
    Битрейт : 448 Кбит/сек
    Каналы : 6 каналов
    Расположение каналов : Front: L C R, Side: L R, LFE
    Частота : 48,0 КГц
    Битовая глубина : 16 бит
    Метод сжатия : С потерями
    Размер потока : 325 Мбайт (20%)
    Выравнивание : Разделение по промежуткам
    Продолжительность промежутка : 42 мс. (1,00 видеокадр)
    Время предзагрузки промежутка : 500 мс.

    Скриншоты

    Скачать .torrent

    Скачать торрент-файл бесплатно и на максимальной скорости!

    Как скачивать? · Что такое торрент? · Рейтинг и ограничения

    !ВНИМАНИЕ!
    Сайт не распространяет и не хранит электронные версии произведений, а занимается лишь лишь предоставлением доступа к создаваемому пользователями каталогу ссылок на торрент-файлы, которые содержат только списки хеш-сумм, убедительная просьба с жалобами обращаться напрямую к пользователю. Файлы для обмена на трекере предоставлены пользователями сайта, и администрация не несёт ответственности за их содержание. Просьба не заливать файлы, защищенные авторскими правами, а также файлы нелегального содержания!


    _________________
    [Профиль] [ЛС]
    Показать сообщения:    
    Ответить на тему

    Текущее время: Сегодня, в 03:14

    Часовой пояс: GMT + 2



    Вы не можете начинать темы
    Вы не можете отвечать на сообщения
    Вы не можете редактировать свои сообщения
    Вы не можете удалять свои сообщения
    Вы не можете голосовать в опросах
    Вы не можете прикреплять файлы к сообщениям
    Вы не можете скачивать файлы