BitTorrentTracker PerecTracker.org
BitTorrentTracker PerecTracker.org
    
Регистрация  ·  Вход
 
 · 
Забыли пароль?

  • Жениться в 24 часа (Анатолий Эйрамджан) [2004, комедия, DVB-AVC]

    Ответить на тему
     
    Автор Сообщение

    Flirldrerve

    Создавать темы 18-Июн-2016 21:29

           

    [Цитировать]

    Жениться в 24 часа
    Страна: Россия
    Киностудия: "Новый Одеон"
    Жанр: комедия
    Год выпуска: 2004
    Продолжительность: 00:59:51
    Режиссёр: Анатолий Эйрамджан
    В ролях: Леонид Карпович, Екатерина Зинченко, Виктор Ильичёв, Светлана Постемская
    Описание: Катя прочитала в интернете объявление нашего эмигранта в Майами: " Женюсь в 24 часа на женщине, которая хорошо готовит борщ! "
    Катя была не замужем, борщ умела готовить, она ответила на письмо и вот... она приехала в Майами. Где и начались ее приключения...
    Доп. информация:
    Сценарист: Анатолий Эйрамджан
    Оператор: Евгений Давыдов
    Художник: Оксана Шагдар
    Продюсер: Анатолий Эйрамджан

    Запись потока *.ts с наземного цифрового телеканала "Беларусь 3", ремукс в *.mkv программой VideoReDo.
    Во время показа финальных интертитров происходит анонс следующей передачи (видно на скрине)
    Качество видео: DVB-AVC
    Формат/Контейнер: MKV
    Видео кодек: H.264
    Аудио кодек: MP2
    Видео поток: AVC (H264), 720x576 (4:3), 25 fps, 2 207 Kbps
    Аудио поток: MP2, 256 kbps, 2 channels, 48 kHz
    Сэмпл: http://multi-up.com/1106431

    MediaInfo

    GeneralUnique ID : 281786539868153845832075949847526792583 (0xD3FE1D0EB639A7078B7983FC56B45D87)Complete name : D:\Новая земля 2\Художественные фильмы\Жениться в 24 часа (2004)\Жениться в 24 часа (2004).mkvFormat : MatroskaFormat version : Version 2File size : 1.05 GiBDuration : 59mn 50sOverall bit rate : 2 513 KbpsWriting application : Lavf52.64.2Writing library : Lavf52.64.2
    VideoID : 1Format : AVCFormat/Info : Advanced Video CodecFormat profile : Main@L3.0Format settings, CABAC : YesFormat settings, ReFrames : 4 framesCodec ID : V_MPEG4/ISO/AVCDuration : 59mn 50sBit rate : 2 207 KbpsWidth : 720 pixelsHeight : 576 pixelsDisplay aspect ratio : 4:3Original display aspect ratio : 4:3Frame rate mode : ConstantFrame rate : 25.000 fpsStandard : PALColor space : YUVChroma subsampling : 4:2:0Bit depth : 8 bitsScan type : MBAFFScan order : Top Field FirstBits/(Pixel*Frame) : 0.213Stream size : 945 MiB (88%)Default : YesForced : NoColor primaries : BT.601 PALTransfer characteristics : BT.470 System B, BT.470 System GMatrix coefficients : BT.601Color range : Limited
    AudioID : 2Format : MPEG AudioFormat version : Version 1Format profile : Layer 2Codec ID : A_MPEG/L2Codec ID/Hint : MP2Duration : 59mn 50sBit rate mode : ConstantBit rate : 256 KbpsChannel(s) : 2 channelsSampling rate : 48.0 KHzCompression mode : LossyStream size : 110 MiB (10%)Language : EnglishDefault : YesForced : No

    Скриншот c названием фильма

    Скриншоты

    Скачать .torrent

    Скачать торрент-файл бесплатно и на максимальной скорости!

    Как скачивать? · Что такое торрент? · Рейтинг и ограничения

    !ВНИМАНИЕ!
    Сайт не распространяет и не хранит электронные версии произведений, а занимается лишь лишь предоставлением доступа к создаваемому пользователями каталогу ссылок на торрент-файлы, которые содержат только списки хеш-сумм, убедительная просьба с жалобами обращаться напрямую к пользователю. Файлы для обмена на трекере предоставлены пользователями сайта, и администрация не несёт ответственности за их содержание. Просьба не заливать файлы, защищенные авторскими правами, а также файлы нелегального содержания!


    _________________
    [Профиль] [ЛС]
    Показать сообщения:    
    Ответить на тему

    Текущее время: Сегодня, в 07:50

    Часовой пояс: GMT + 2



    Вы не можете начинать темы
    Вы не можете отвечать на сообщения
    Вы не можете редактировать свои сообщения
    Вы не можете удалять свои сообщения
    Вы не можете голосовать в опросах
    Вы не можете прикреплять файлы к сообщениям
    Вы не можете скачивать файлы