Register  ·  Log in
Forgot password?

  • Фальшивая нота / Серии: 1-8 из 8 (Роман Просвирнин) [2016, мелодрама, HDTVRip]

    Reply to topic
    Author Message


    Post 18-Jun-2016 14:23



    Фальшивая нотаГод выпуска: 2016
    Производство: Кинокомпания Русское
    Жанр: мелодрама
    Продолжительность: ~45 мин. серия
    Субтитры: нет
    Режиссёр: Роман Просвирнин
    В ролях: Софья Синицына, Анна Вартанян, Алексей Демидов, Илья Коробко, Елена Оболенская (Белевич), Дмитрий Миллер, Юлия Юрченко, Диана Енакаева, Анатолий Наумов (II), Дарья Лузина, Александра Ровенских, Денис Варенов
    Описание: Марина, по прозвищу Мышка, – хорошая и скромная девушка, абитуриентка консерватории. С помощью матери, знаменитой актрисы Инги Белозеровой, она попадает к лучшему педагогу – Нине Георгиевне. Марина очаровывается ее сыном Кириллом, и вскоре у молодых людей завязываются отношения.. Но на пути первой любви встают тайны далекого прошлого. Когда-то у Инги Белозеровой был страстный роман с отцом Кирилла Вячеславом. Встретившись двадцать лет спустя, Инга и Вячеслав понимают, что любовь жива…
    Релиз группа
    Все раздачи сериала
    Качество: HDTVRip
    Формат: AVI
    Видео кодек: XviD
    Аудио кодек: AC3
    Видео: 720x400 (1.80:1), 25 fps, XviD build 73 ~1498 kbps avg, 0.22 bit/pixel
    Аудио: 48 kHz, AC3 Dolby Digital, 2/0 (L,R) ch, ~192.00 kbps avg


    Complete name : X:\раздачи\Фальшивая нота (2015).HDTVRip.RG.Russkie.serialy.&.Files-x.Фальшивая нота (2015).HDTVRip.RG.Russkie.serialy.&.Files-x.avi
    Format : AVI
    Format/Info : Audio Video Interleave
    File size : 549 MiB
    Duration : 45mn 18s
    Overall bit rate : 1 695 Kbps
    Writing application : VirtualDubMod | || (build 2550/release)
    Writing library : VirtualDubMod build 2550/release
    ID : 0
    Format : MPEG-4 Visual
    Format profile : Advanced Simple@L5
    Format settings, BVOP : 1
    Format settings, QPel : No
    Format settings, GMC : No warppoints
    Format settings, Matrix : Custom
    Codec ID : XVID
    Codec ID/Hint : XviD
    Duration : 45mn 18s
    Bit rate : 1 494 Kbps
    Width : 720 pixels
    Height : 400 pixels
    Display aspect ratio : 16:9
    Frame rate : 25.000 fps
    Color space : YUV
    Chroma subsampling : 4:2:0
    Bit depth : 8 bits
    Scan type : Progressive
    Compression mode : Lossy
    Bits/(Pixel*Frame) : 0.207
    Stream size : 484 MiB (88%)
    Writing library : XviD 73
    ID : 1
    Format : AC-3
    Format/Info : Audio Coding 3
    Mode extension : CM (complete main)
    Format settings, Endianness : Big
    Codec ID : 2000
    Duration : 45mn 18s
    Bit rate mode : Constant
    Bit rate : 192 Kbps
    Channel(s) : 2 channels
    Channel positions : Front: L R
    Sampling rate : 48.0 KHz
    Frame rate : 31.250 fps (1536 spf)
    Compression mode : Lossy
    Stream size : 62.2 MiB (11%)
    Alignment : Split accross interleaves
    Interleave, duration : 40 ms (1.00 video frame)
    Interleave, preload duration : 500 ms


    Download .torrent

    Download free and at maximum speed!

    How to Download? · What is a torrent? · Ratings and Limitations

    The site does not extend and does not store electronic(digital) versions of products, and only gives access to a reference catalogue created by users on torrent-files which contain only lists of the hash-sums, the earnest entreaty, with complaints(abuse) to access directly to the user. Files for an exchange on tracker are given by users of a site, and the administration does not bear the responsibility for their maintenance. The request to not fill in the files protected by copyrights, and also files of the illegal maintenance!

    [Profile] [PM]
    Display posts from previous:    
    Reply to topic

    The time now is: Today 08:55

    All times are GMT + 3 Hours

    You cannot post new topics in this forum
    You cannot reply to topics in this forum
    You cannot edit your posts in this forum
    You cannot delete your posts in this forum
    You cannot vote in polls in this forum
    You cannot attach files in this forum
    You cannot download files in this forum