BitTorrentTracker PerecTracker.org
BitTorrentTracker PerecTracker.org
    
Регистрация  ·  Вход
 
 · 
Забыли пароль?

  • Дивергент, глава 3: За стеной / The Divergent Series: Allegiant (Роберт Швентке / Robert Schwentke) [2016, США, Фантастика, боевик, приключения, WEB-DLRip] Dub (iTunes)

    Ответить на тему
     
    Автор Сообщение

    rechyn

    Создавать темы 18-Июн-2016 09:10

           

    [Цитировать]

    Дивергент, глава 3: За стеной / The Divergent Series: Allegiant
    Страна: США
    Жанр: Фантастика, боевик, приключения
    Год выпуска: 2016
    Продолжительность: 02:00:20
    Перевод: Профессиональный (дублированный) iTunes
    Cубтитры: нет
    Режиссер: Роберт Швентке / Robert Schwentke
    В ролях: Шейлин Вудли, Тео Джеймс, Энсел Элгорт, Зои Кравиц, Майлз Теллер, Джефф Дэниелс, Наоми Уоттс, Мэгги Кью, Билл Скарсгард, Кейнан Лонсдейл, Надиа Хилкер, Октавия Спенсер, Дэниэл Дэ Ким, Джонни Уэстон, Энди Бин, Рэй Стивенсон, Мекхай Файфер, Джозеф Дэвид-Джонс, Эшли Джадд, Джош Давендек
    Описание: Трис и Тобиас вместе с компанией друзей выбираются за пределы родного дома. Они хотят узнать правду и обрести свободу. Но попадают прямиком в Бюро Генетической Защиты. Оказывается, в прошлом разгорелась генетическая война за чистоту. В результате мир поделили на "генетически чистых" и "генетически поврежденных" особей. А ученые превратились в одержимых чудовищ и принялись экспериментировать: создавать искусственные поселения и внедрять в них своих агентов. Главная цель подопытных — служить расходным материалом и давать "генетически чистое" потомство. Трис возмущена до глубины души, Тобиас мечется в поисках самого себя и вляпывается в очередную переделку. А ученые из Бюро опять недовольны. Они намерены устроить "перезагрузку", то есть стереть память всех жителей города. Трис решает предотвратить катастрофу…
    Рейтинг : -- IMDB
    Дата мировой премьеры: -- 8 марта 2016
    Дата премьеры в России: -- 10 марта 2016, от «Централ Партнершип»
    Сэмпл: http://multi-up.com/1106311
    Качество видео: WEB-DLRip (рип с WEB-DL 720p)
    Формат видео: AVI
    Видео: XviD, 720x400, (16:9), 24,000 fps, 730 Кбит/сек, 8 бит
    Аудио: Русский (MP3, 2 ch, 48,0 KHz, 128 Kbps)

    MediaInfo

    Общее
    Полное имя : F:\Видеофильмы\В и д е о\Дивергент, глава - 3 За стеной (фантастика, боевик, приключения 2016г).avi
    Формат : AVI
    Формат/Информация : Audio Video Interleave
    Размер файла : 747 Мбайт
    Продолжительность : 2 ч. 0 м.
    Общий поток : 867 Кбит/сек
    Программа кодирования : VirtualDubMod 1.5.10.2 (build 2540/release)
    Библиотека кодирования : VirtualDubMod build 2540/release
    Видео
    Идентификатор : 0
    Формат : MPEG-4 Visual
    Профиль формата : Advanced Simple@L5
    Параметр BVOP формата : 1
    Параметр QPel формата : Нет
    Параметр GMC формата : Без точки перехода
    Параметр матрицы формата : Выборочная
    Идентификатор кодека : XVID
    Идентификатор кодека/Подсказка : XviD
    Продолжительность : 2 ч. 0 м.
    Битрейт : 730 Кбит/сек
    Ширина : 720 пикселей
    Высота : 400 пикселей
    Соотношение сторон : 16:9
    Частота кадров : 24,000 кадра/сек
    Цветовое пространство : YUV
    Субдискретизация насыщенности : 4:2:0
    Битовая глубина : 8 бит
    Тип развёртки : Прогрессивная
    Метод сжатия : С потерями
    Бит/(Пиксели*Кадры) : 0.106
    Размер потока : 628 Мбайт (84%)
    Библиотека кодирования : XviD 1.2.0.dev47 (UTC 2006-11-01)
    Аудио
    Идентификатор : 1
    Формат : MPEG Audio
    Версия формата : Version 1
    Профиль формата : Layer 3
    Идентификатор кодека : 55
    Идентификатор кодека/Подсказка : MP3
    Продолжительность : 2 ч. 0 м.
    Вид битрейта : Постоянный
    Битрейт : 128 Кбит/сек
    Каналы : 2 канала
    Частота : 48,0 КГц
    Метод сжатия : С потерями
    Размер потока : 110 Мбайт (15%)
    Выравнивание : Соединение по промежуткам
    Продолжительность промежутка : 42 мс. (1,00 видеокадр)
    Время предзагрузки промежутка : 504 мс.
    Библиотека кодирования : LAME3.97
    Настройки программы : -m s -V 4 -q 2 -lowpass 17 -b 128

    Скриншот c названием фильма

    Скриншоты

    Скачать .torrent

    Скачать торрент-файл бесплатно и на максимальной скорости!

    Как скачивать? · Что такое торрент? · Рейтинг и ограничения

    !ВНИМАНИЕ!
    Сайт не распространяет и не хранит электронные версии произведений, а занимается лишь лишь предоставлением доступа к создаваемому пользователями каталогу ссылок на торрент-файлы, которые содержат только списки хеш-сумм, убедительная просьба с жалобами обращаться напрямую к пользователю. Файлы для обмена на трекере предоставлены пользователями сайта, и администрация не несёт ответственности за их содержание. Просьба не заливать файлы, защищенные авторскими правами, а также файлы нелегального содержания!


    _________________
    [Профиль] [ЛС]
    Показать сообщения:    
    Ответить на тему

    Текущее время: Сегодня, в 08:01

    Часовой пояс: GMT + 2



    Вы не можете начинать темы
    Вы не можете отвечать на сообщения
    Вы не можете редактировать свои сообщения
    Вы не можете удалять свои сообщения
    Вы не можете голосовать в опросах
    Вы не можете прикреплять файлы к сообщениям
    Вы не можете скачивать файлы