BitTorrentTracker PerecTracker.org
BitTorrentTracker PerecTracker.org
    
Регистрация  ·  Вход
 
 · 
Забыли пароль?

  • Необыкновенное путешествие / Wieners (Марк Штайлен / Mark Steilen) [2008, США, приключения, комедия, WEB-DL 720p] MVO + Sub Eng + Original Eng

    Ответить на тему
     
    Автор Сообщение

    Light

    Создавать темы 17-Июн-2016 22:31

           

    [Цитировать]

    Необыкновенное путешествие / Wieners
    -Страна: США
    Жанр: приключения, комедия
    Год выпуска: 2008
    Продолжительность: 01:32:50-Перевод 1: Профессиональный (многоголосый закадровый)
    Cубтитры: английские
    Оригинальная аудиодорожка: английский-Режиссер: Марк Штайлен / Mark Steilen-В ролях: Кенан Томпсон, Фран Кранц, Захари Леви, Даррелл Хэммонд, Дженни МакКарти, Мелинда Стерлинг, Блейк Кларк, Эндрю Б. Экерман, Кайл Гэсс-Описание:
    Когда Джоэл стал публичным посмешищем под градом остроумных уколов одного из ведущих телевизионного шоу «Доктора Двэйна», он впал в серьезную хандру. Но не даром крепкая дружба ценится превыше всего. Лучшие друзья Джоэла Уайт и Бэн силой уговаривают его присоединиться к путешествию по стране с определенной миссией — разнести в пух и прах нравоучительные теории шоу-терапевта. Трое парней усаживаются в самодельный хот-дог-вагончик и отправляются колесить по Америке, набирая в свои ряды бесчисленное полчище чудаков, оригиналов и неудачников, включая очаровательную красотку.-Сэмпл: Скачать-Тип релиза: WEB-DL 720p
    Контейнер: MKV-Видео: 1 280x718 (16:9); 3 821 Kbps; 23.976 fps; 0.173 bpp
    Аудио 1: Russian; AC3; 48.0 KHz; 6ch; 448 Kbps
    Аудио 2: English; AC3; 48.0 KHz; 6ch; 384 Kbps

    MediaInfo

    Format : Matroska
    Format version : Version 4 / Version 2
    File size : 3.08 GiB
    Duration : 1h 32mn
    Overall bit rate : 4 748 Kbps
    Encoded date : UTC 2015-11-26 16:05:46
    Writing application : mkvmerge v8.3.0 ('Over the Horizon') 64bit
    Writing library : libebml v1.3.1 + libmatroska v1.4.2
    Attachements : poster.jpg
    DURATION : 01:32:55.712000000
    NUMBER_OF_FRAMES : 174241
    NUMBER_OF_BYTES : 312239872
    _STATISTICS_WRITING_APP : mkvmerge v8.3.0 ('Over the Horizon') 64bit
    _STATISTICS_WRITING_DATE_UT : 2015-11-26 16:05:46
    _STATISTICS_TAGS : BPS DURATION NUMBER_OF_FRAMES NUMBER_OF_BYTES
    Video
    ID : 1
    Format : AVC
    Format/Info : Advanced Video Codec
    Format profile : High@L3.1
    Format settings, CABAC : No
    Format settings, ReFrames : 2 frames
    Codec ID : V_MPEG4/ISO/AVC
    Duration : 1h 32mn
    Bit rate : 3 821 Kbps
    Width : 1 280 pixels
    Height : 718 pixels
    Display aspect ratio : 16:9
    Frame rate mode : Constant
    Frame rate : 23.976 fps
    Color space : YUV
    Chroma subsampling : 4:2:0
    Bit depth : 8 bits
    Scan type : Progressive
    Bits/(Pixel*Frame) : 0.173
    Stream size : 2.48 GiB (80%)
    Language : English
    Default : Yes
    Forced : No
    Color range : Limited
    Color primaries : BT.709
    Transfer characteristics : BT.709
    Matrix coefficients : BT.709
    Audio #1
    ID : 2
    Format : AC-3
    Format/Info : Audio Coding 3
    Mode extension : CM (complete main)
    Format settings, Endianness : Big
    Codec ID : A_AC3
    Duration : 1h 32mn
    Bit rate mode : Constant
    Bit rate :448 Kbps
    Channel(s) : 6 channels
    Channel positions : Front: L C R, Side: L R, LFE
    Sampling rate : 48.0 KHz
    Compression mode : Lossy
    Stream size : 298 MiB (9%)
    Title : DVO
    Language : Russian
    Default : Yes
    Forced : No
    Audio #2
    ID : 3
    Format : AC-3
    Format/Info : Audio Coding 3
    Mode extension : CM (complete main)
    Format settings, Endianness : Big
    Codec ID : A_AC3
    Duration : 1h 32mn
    Bit rate mode : Constant
    Bit rate : 384 Kbps
    Channel(s) : 6 channels
    Channel positions : Front: L C R, Side: L R, LFE
    Sampling rate : 48.0 KHz
    Compression mode : Lossy
    Stream size : 255 MiB (8%)
    Language : English
    Default : No
    Forced : No
    Text
    ID : 4
    Format : UTF-8
    Codec ID : S_TEXT/UTF8
    Codec ID/Info : UTF-8 Plain Text
    Title : CC
    Language : English
    Default : No
    Forced : No
    Menu
    00:00:00.000 : en:Chapter 1
    00:11:33.000 : en:Chapter 2
    00:15:55.000 : en:Chapter 3
    00:24:10.000 : en:Chapter 4
    00:31:51.000 : en:Chapter 5
    00:41:11.000 : en:Chapter 6
    00:48:18.000 : en:Chapter 7
    00:57:03.000 : en:Chapter 8
    01:06:43.000 : en:Chapter 9
    01:11:39.000 : en:Chapter 10
    01:19:25.000 : en:Chapter 11
    01:25:39.000 : en:Chapter 12

    Скриншоты

    Скачать .torrent

    Скачать торрент-файл бесплатно и на максимальной скорости!

    Как скачивать? · Что такое торрент? · Рейтинг и ограничения

    !ВНИМАНИЕ!
    Сайт не распространяет и не хранит электронные версии произведений, а занимается лишь лишь предоставлением доступа к создаваемому пользователями каталогу ссылок на торрент-файлы, которые содержат только списки хеш-сумм, убедительная просьба с жалобами обращаться напрямую к пользователю. Файлы для обмена на трекере предоставлены пользователями сайта, и администрация не несёт ответственности за их содержание. Просьба не заливать файлы, защищенные авторскими правами, а также файлы нелегального содержания!


    _________________
    [Профиль] [ЛС]
    Показать сообщения:    
    Ответить на тему

    Текущее время: Сегодня, в 10:04

    Часовой пояс: GMT + 2



    Вы не можете начинать темы
    Вы не можете отвечать на сообщения
    Вы не можете редактировать свои сообщения
    Вы не можете удалять свои сообщения
    Вы не можете голосовать в опросах
    Вы не можете прикреплять файлы к сообщениям
    Вы не можете скачивать файлы