BitTorrentTracker PerecTracker.org
BitTorrentTracker PerecTracker.org
    
Регистрация  ·  Вход
 
 · 
Забыли пароль?

  • Стоунволл / Stonewall (Роланд Эммерих / Roland Emmerich) [2015, США, драма, гей-тема, BDRip 720p] DVO + Original Eng

    Ответить на тему
     
    Автор Сообщение

    Light

    Создавать темы 17-Июн-2016 22:31

           

    [Цитировать]

    Стоунволл / Stonewall
    Страна: США
    Жанр: Драма
    Год выпуска: 2015
    Продолжительность: 02:09:51
    Перевод: Любительский (двухголосый) [Parovoz Production]
    Оригинальная аудиодорожка: Английский
    Режиссер: Роланд Эммерих / Roland Emmerich
    В ролях: Джереми Ирвин, Джонни Бошан, Джои Кинг, Калеб Лэндри Джонс, Мэтт Крэйвен, Джонатан Риз Майерс, Рон Перлман, Карл Глусман, Дэвид Кабитт, Аттикус Митчелл
    Описание: В основу фильма легли реальные события, случившиеся 28 июня 1969 года в баре «Стоунуолл», расположенном в Гринвич-Виллидж в Нью-Йорке. Этот бар принадлежал мафии и представлял собой, по сути, гей-клуб: здесь собирались гомосексуалы и трансгендеры со всего Большого Яблока. 28 июня в «Стоунуолл» ворвалась полиция, и это событие стало пиковым моментом в деле развития движения за права геев.
    СЕМПЛ
    Качество видео: BD-Rip 720p (Stonewall.2015.720p.BluRay.x264.DTS-HD.5.1-RARBG)
    Формат видео: MKV
    Видео: x264; 1280x544 (2,35:1); 23,976 fps; ~4000 kbps
    Аудио 1: AAC; 48 kHz; 5.1 (Front: L C R, Side: L R, LFE); 431 kbps | DVO - Русский
    Аудио 2: AAC; 48 kHz; 5.1 (Front: L C R, Side: L R, LFE); 459 kbps | Original - English

    MediaInfo

    Общее
    Полное имя : Stonewall (2015) 720p K_I.mkv
    Формат : Matroska
    Версия формата : Version 4 / Version 2
    Размер файла : 4,42 Гбайт
    Продолжительность : 2 ч. 9 м.
    Общий поток : 4892 Кбит/сек
    Название фильма : Stonewall (2015) 720p K_I
    Дата кодирования : UTC 2016-06-16 19:13:42
    Программа кодирования : mkvmerge v8.3.0 ('Over the Horizon') 64bit
    Библиотека кодирования : libebml v1.3.1 + libmatroska v1.4.2
    Видео
    Идентификатор : 1
    Формат : AVC
    Формат/Информация : Advanced Video Codec
    Профиль формата : High@L3.2
    Параметр CABAC формата : Да
    Параметр ReFrames формата : 7 кадров
    Идентификатор кодека : V_MPEG4/ISO/AVC
    Продолжительность : 2 ч. 9 м.
    Битрейт : 4000 Кбит/сек
    Ширина : 1280 пикселей
    Высота : 544 пикселя
    Соотношение сторон : 2,35:1
    Режим частоты кадров : Постоянный
    Частота кадров : 23,976 кадра/сек
    Цветовое пространство : YUV
    Субдискретизация насыщенности : 4:2:0
    Битовая глубина : 8 бит
    Тип развёртки : Прогрессивная
    Бит/(Пиксели*Кадры) : 0.240
    Размер потока : 3,61 Гбайт (82%)
    Библиотека кодирования : x264 core 148 r2638 7599210
    Настройки программы : cabac=1 / ref=7 / deblock=1:-2:-1 / analyse=0x3:0x133 / me=umh / subme=10 / psy=1 / psy_rd=1.00:0.20 / mixed_ref=1 / me_range=24 / chroma_me=1 / trellis=2 / 8x8dct=1 / cqm=0 / deadzone=21,11 / fast_pskip=1 / chroma_qp_offset=-3 / threads=12 / lookahead_threads=2 / sliced_threads=0 / nr=0 / decimate=1 / interlaced=0 / bluray_compat=0 / constrained_intra=0 / bframes=7 / b_pyramid=2 / b_adapt=2 / b_bias=0 / direct=3 / weightb=1 / open_gop=0 / weightp=2 / keyint=250 / keyint_min=23 / scenecut=40 / intra_refresh=0 / rc_lookahead=60 / rc=2pass / mbtree=1 / bitrate=4000 / ratetol=1.0 / qcomp=0.60 / qpmin=0 / qpmax=69 / qpstep=4 / cplxblur=20.0 / qblur=0.5 / ip_ratio=1.40 / aq=1:1.00
    Default : Да
    Forced : Нет
    Аудио #1
    Идентификатор : 2
    Формат : AAC
    Формат/Информация : Advanced Audio Codec
    Профиль формата : LC
    Идентификатор кодека : A_AAC
    Продолжительность : 2 ч. 9 м.
    Битрейт : 431 Кбит/сек
    Каналы : 6 каналов
    Расположение каналов : Front: L C R, Side: L R, LFE
    Частота : 48,0 КГц
    Частота кадров : 46,875 кадров/сек (1024 spf)
    Метод сжатия : С потерями
    Размер потока : 399 Мбайт (9%)
    Язык : Russian
    Default : Да
    Forced : Нет
    Аудио #2
    Идентификатор : 3
    Формат : AAC
    Формат/Информация : Advanced Audio Codec
    Профиль формата : LC
    Идентификатор кодека : A_AAC
    Продолжительность : 2 ч. 9 м.
    Битрейт : 459 Кбит/сек
    Каналы : 6 каналов
    Расположение каналов : Front: L C R, Side: L R, LFE
    Частота : 48,0 КГц
    Частота кадров : 46,875 кадров/сек (1024 spf)
    Метод сжатия : С потерями
    Размер потока : 424 Мбайт (9%)
    Язык : English
    Default : Нет
    Forced : Нет
    Меню
    00:00:00.000 : en:00:00:00.000
    00:11:34.235 : en:00:11:34.235
    00:21:05.514 : en:00:21:05.514
    00:29:10.958 : en:00:29:10.958
    00:39:25.530 : en:00:39:25.530
    00:49:19.957 : en:00:49:19.957
    01:00:29.793 : en:01:00:29.793
    01:09:21.199 : en:01:09:21.199
    01:19:14.166 : en:01:19:14.166
    01:29:35.870 : en:01:29:35.870
    01:43:51.642 : en:01:43:51.642
    01:56:14.968 : en:01:56:14.968

    Скриншот с названием фильма

    Скриншоты



    Скачать .torrent

    Скачать торрент-файл бесплатно и на максимальной скорости!

    Как скачивать? · Что такое торрент? · Рейтинг и ограничения

    !ВНИМАНИЕ!
    Сайт не распространяет и не хранит электронные версии произведений, а занимается лишь лишь предоставлением доступа к создаваемому пользователями каталогу ссылок на торрент-файлы, которые содержат только списки хеш-сумм, убедительная просьба с жалобами обращаться напрямую к пользователю. Файлы для обмена на трекере предоставлены пользователями сайта, и администрация не несёт ответственности за их содержание. Просьба не заливать файлы, защищенные авторскими правами, а также файлы нелегального содержания!


    _________________
    [Профиль] [ЛС]
    Показать сообщения:    
    Ответить на тему

    Текущее время: Сегодня, в 00:27

    Часовой пояс: GMT + 2



    Вы не можете начинать темы
    Вы не можете отвечать на сообщения
    Вы не можете редактировать свои сообщения
    Вы не можете удалять свои сообщения
    Вы не можете голосовать в опросах
    Вы не можете прикреплять файлы к сообщениям
    Вы не можете скачивать файлы