BitTorrentTracker PerecTracker.org
BitTorrentTracker PerecTracker.org
    
Регистрация  ·  Вход
 
 · 
Забыли пароль?

  • Кунг-фу Панда 3 / Kung Fu Panda 3 (Алессандро Карлони, Дженнифер Ю / Alessandro Carloni, Jennifer Yuh) [2016, Китай, США, Мультфильм, комедия, семейный, BDRip-AVC] Dub + Original Eng + Sub Rus, Eng

    Ответить на тему
     
    Автор Сообщение

    Flirldrerve

    Создавать темы 17-Июн-2016 06:11

           

    [Цитировать]

    Кунг-фу Панда 3 / Kung Fu Panda 3
    Страна: Китай, США
    Жанр: Мультфильм, боевик, комедия, приключения, семейный
    Продолжительность: 01:34:54
    Год выпуска: 2016
    Перевод: Профессиональный (дублированный) iTunes
    Русские субтитры: есть--Режиссёр: Алессандро Карлони, Дженнифер Ю / Alessandro Carloni, Jennifer Yuh--Роли озвучивали: Джек Блэк, Брайан Крэнстон, Дастин Хоффман, Анджелина Джоли, Дж.К. Симмонс, Джеки Чан, Сет Роген, Люси Лью, Дэвид Кросс, Кейт Хадсон, Джеймс Хонг, Рэндолл Дак Ким, Стил Гэнон...--Роли дублировали: Михаил Галустян, Александр Новиков, Василиса Эльдарова, Александр Хотченков, Ольга Зубкова, Сергей Чихачев, Диомид Виноградов, Денис Беспалый, Марианна Шульц, Александр Гаврилин, Анастасия Лапина, Олег Форостенко, Борис Быстров, Матвей Некрасов...--Описание: Воссоединившись со своим давно потерянным отцом, По отправляется в тайный рай для панд, где его ожидает встреча с множеством веселых сородичей. Однако вскоре злодей Кай начинает зачистку - он уничтожает кунг-фу мастеров по всему Китаю. По предстоит сделать невозможное - обучить боевому искусству деревню, полную его веселых, неуклюжих собратьев, и тем самым превратить их в отряд кунг-фу панд.--Доп. информация: | IMDB | КиноПоиск | Сэмпл |

    --Качество: BDRip-AVC Kung Fu Panda 3 (2016) 1080p BD-Remux Hdclub
    Формат: MKV
    Видео: AVC, 748x318, (2.35:1), 836 kbps, 23.976 fps, 0.171 bit/pixel
    Аудио 1: AАС-HE, 48.0 KHz, 64 Kbps, 2 channels
    Аудио 2: AАС-HE, 48.0 KHz, 64 Kbps, 2 channels
    Субтитры: Русские (Форсированные, Полные), Украинские (Полные), Английские (Full, Full SDH)
    Скриншоты

    Запасные скриншоты

    Подробные технические данные

    x264

    raw [info]: 748x318p 1:1 @ 24000/1001 fps (cfr)
    x264 [info]: using SAR=1/1
    x264 [info]: using cpu capabilities: MMX2 SSE2Fast SSSE3 SSE4.2 AVX
    x264 [info]: profile High, level 3.2
    x264 [info]: frame I:1197 Avg QP:17.22 size: 42105
    x264 [info]: frame P:33582 Avg QP:21.18 size: 10091
    x264 [info]: frame B:101756 Avg QP:23.17 size: 2986
    x264 [info]: consecutive B-frames: 3.1% 3.2% 11.0% 40.4% 16.6% 13.2% 3.0% 1.0% 7.0% 0.7% 0.2% 0.2% 0.1% 0.0% 0.0% 0.1%
    x264 [info]: mb I I16..4: 4.8% 65.6% 29.6%
    x264 [info]: mb P I16..4: 2.0% 11.3% 2.6% P16..4: 36.8% 15.5% 16.3% 1.4% 0.6% skip:13.6%
    x264 [info]: mb B I16..4: 0.2% 1.0% 0.3% B16..8: 32.3% 9.4% 3.8% direct: 4.4% skip:48.7% L0:40.9% L1:43.5% BI:15.6%
    x264 [info]: 8x8 transform intra:70.0% inter:53.8%
    x264 [info]: direct mvs spatial:95.6% temporal:4.4%
    x264 [info]: coded y,uvDC,uvAC intra: 77.1% 84.0% 60.4% inter: 16.6% 15.8% 8.1%
    x264 [info]: i16 v,h,dc,p: 13% 25% 8% 55%
    x264 [info]: i8 v,h,dc,ddl,ddr,vr,hd,vl,hu: 8% 12% 6% 9% 13% 12% 15% 11% 15%
    x264 [info]: i4 v,h,dc,ddl,ddr,vr,hd,vl,hu: 7% 10% 4% 9% 15% 13% 15% 11% 15%
    x264 [info]: i8c dc,h,v,p: 37% 26% 15% 21%
    x264 [info]: Weighted P-Frames: Y:5.5% UV:4.5%
    x264 [info]: ref P L0: 56.6% 12.1% 12.2% 5.6% 3.8% 2.9% 2.2% 1.2% 1.0% 0.8% 0.7% 0.6% 0.5% 0.0% 0.0%
    x264 [info]: ref B L0: 76.5% 12.8% 4.9% 2.0% 1.3% 0.9% 0.7% 0.4% 0.3% 0.2% 0.1% 0.1%
    x264 [info]: ref B L1: 94.7% 5.3%
    x264 [info]: kb/s:973.74
    General
    Unique ID : 190300601772535041037299031014084899340 (0x8F2A900FA77751C1AE17E096AB6EF20C)
    Complete name : Kung Fu Panda 3.mkv
    Format : Matroska
    Format version : Version 4 / Version 2
    File size : 749 MiB
    Duration : 1h 34mn
    Overall bit rate : 1 103 Kbps
    Movie name : Кунг-фу Панда 3 / Kung Fu Panda 3 (2016)
    Encoded date : UTC 2016-06-17 00:15:32
    Writing application : mkvmerge v8.1.0 ('Psychedelic Postcard') 64bit
    Writing library : libebml v1.3.1 + libmatroska v1.4.2
    Cover : Yes
    Attachments : cover.png
    Video
    ID : 1
    Format : AVC
    Format/Info : Advanced Video Codec
    Format profile : High@L3.2
    Format settings, CABAC : Yes
    Format settings, ReFrames : 13 frames
    Codec ID : V_MPEG4/ISO/AVC
    Duration : 1h 34mn
    Bit rate : 974 Kbps
    Width : 748 pixels
    Height : 318 pixels
    Display aspect ratio : 2.35:1
    Frame rate mode : Constant
    Frame rate : 23.976 (24000/1001) fps
    Color space : YUV
    Chroma subsampling : 4:2:0
    Bit depth : 8 bits
    Scan type : Progressive
    Bits/(Pixel*Frame) : 0.171
    Stream size : 661 MiB (88%)
    Title : Kung Fu Panda 3 (2016) By optik.1557
    Writing library : x264 core 148 r2692kMod 64f4e24
    Encoding settings : cabac=1 / ref=13 / deblock=1:-3:-2 / analyse=0x3:0x133 / me=umh / subme=10 / psy=1 / fade_compensate=0.00 / psy_rd=1.05:0.03 / mixed_ref=1 / me_range=48 / chroma_me=1 / trellis=2 / 8x8dct=1 / cqm=0 / deadzone=21,11 / fast_pskip=0 / chroma_qp_offset=-3 / threads=6 / lookahead_threads=1 / sliced_threads=0 / nr=0 / decimate=0 / interlaced=0 / bluray_compat=0 / constrained_intra=0 / fgo=0 / bframes=15 / b_pyramid=2 / b_adapt=2 / b_bias=0 / direct=3 / weightb=1 / open_gop=0 / weightp=2 / keyint=250 / keyint_min=23 / scenecut=40 / intra_refresh=0 / rc_lookahead=60 / rc=2pass / mbtree=0 / bitrate=974 / ratetol=1.0 / qcomp=0.60 / qpmin=0 / qpmax=69 / qpstep=4 / cplxblur=20.0 / qblur=0.5 / vbv_maxrate=20000 / vbv_bufsize=20000 / nal_hrd=none / filler=0 / ip_ratio=1.40 / pb_ratio=1.30 / aq=2:0.90
    Language : English
    Default : Yes
    Forced : No
    Audio #1
    ID : 2
    Format : AAC
    Format/Info : Advanced Audio Codec
    Format profile : HE-AAC / LC
    Codec ID : A_AAC
    Duration : 1h 34mn
    Bit rate : 62.7 Kbps
    Channel(s) : 2 channels
    Channel positions : Front: L R
    Sampling rate : 48.0 KHz / 24.0 KHz
    Frame rate : 23.438 fps (1024 spf)
    Compression mode : Lossy
    Stream size : 42.6 MiB (6%)
    Title : Дубляж. 64 Kbps
    Language : Russian
    Default : Yes
    Forced : No
    Audio #2
    ID : 3
    Format : AAC
    Format/Info : Advanced Audio Codec
    Format profile : HE-AAC / LC
    Codec ID : A_AAC
    Duration : 1h 34mn
    Bit rate : 62.7 Kbps
    Channel(s) : 2 channels
    Channel positions : Front: L R
    Sampling rate : 48.0 KHz / 24.0 KHz
    Frame rate : 23.438 fps (1024 spf)
    Compression mode : Lossy
    Stream size : 42.6 MiB (6%)
    Title : Original. 64 Kbps
    Language : English
    Default : No
    Forced : No
    Text #1
    ID : 4
    Format : UTF-8
    Codec ID : S_TEXT/UTF8
    Codec ID/Info : UTF-8 Plain Text
    Duration : 1h 30mn
    Bit rate : 0 bps
    Count of elements : 3
    Stream size : 89.0 Bytes (0%)
    Title : Форсированные
    Language : Russian
    Default : Yes
    Forced : No
    Text #2
    ID : 5
    Format : UTF-8
    Codec ID : S_TEXT/UTF8
    Codec ID/Info : UTF-8 Plain Text
    Duration : 1h 34mn
    Bit rate : 76 bps
    Count of elements : 1260
    Stream size : 53.0 KiB (0%)
    Language : Russian
    Default : No
    Forced : No
    Text #3
    ID : 6
    Format : UTF-8
    Codec ID : S_TEXT/UTF8
    Codec ID/Info : UTF-8 Plain Text
    Duration : 1h 34mn
    Bit rate : 80 bps
    Count of elements : 1266
    Stream size : 55.5 KiB (0%)
    Language : Ukrainian
    Default : No
    Forced : No
    Text #4
    ID : 7
    Format : UTF-8
    Codec ID : S_TEXT/UTF8
    Codec ID/Info : UTF-8 Plain Text
    Duration : 1h 29mn
    Bit rate : 56 bps
    Count of elements : 1470
    Stream size : 36.8 KiB (0%)
    Language : English
    Default : No
    Forced : No
    Text #5
    ID : 8
    Format : UTF-8
    Codec ID : S_TEXT/UTF8
    Codec ID/Info : UTF-8 Plain Text
    Duration : 1h 29mn
    Bit rate : 64 bps
    Count of elements : 1776
    Stream size : 42.4 KiB (0%)
    Title : SDH
    Language : English
    Default : No
    Forced : No
    Menu
    00:00:00.000 : en:Chapter 1
    00:05:21.780 : en:Chapter 2
    00:08:10.240 : en:Chapter 3
    00:10:00.016 : en:Chapter 4
    00:12:26.037 : en:Chapter 5
    00:15:24.215 : en:Chapter 6
    00:19:08.230 : en:Chapter 7
    00:24:39.395 : en:Chapter 8
    00:30:17.607 : en:Chapter 9
    00:33:53.990 : en:Chapter 10
    00:36:18.259 : en:Chapter 11
    00:39:55.643 : en:Chapter 12
    00:43:32.652 : en:Chapter 13
    00:46:45.845 : en:Chapter 14
    00:51:41.181 : en:Chapter 15
    00:56:04.611 : en:Chapter 16
    00:59:48.168 : en:Chapter 17
    01:02:11.353 : en:Chapter 18
    01:05:26.965 : en:Chapter 19
    01:10:16.838 : en:Chapter 20
    01:14:06.901 : en:Chapter 21
    01:17:06.580 : en:Chapter 22
    01:20:34.788 : en:Chapter 23
    01:24:21.181 : en:Chapter 24
    Скачать .torrent

    Скачать торрент-файл бесплатно и на максимальной скорости!

    Как скачивать? · Что такое торрент? · Рейтинг и ограничения

    !ВНИМАНИЕ!
    Сайт не распространяет и не хранит электронные версии произведений, а занимается лишь лишь предоставлением доступа к создаваемому пользователями каталогу ссылок на торрент-файлы, которые содержат только списки хеш-сумм, убедительная просьба с жалобами обращаться напрямую к пользователю. Файлы для обмена на трекере предоставлены пользователями сайта, и администрация не несёт ответственности за их содержание. Просьба не заливать файлы, защищенные авторскими правами, а также файлы нелегального содержания!


    _________________
    [Профиль] [ЛС]
    Показать сообщения:    
    Ответить на тему

    Текущее время: Сегодня, в 11:41

    Часовой пояс: GMT + 2



    Вы не можете начинать темы
    Вы не можете отвечать на сообщения
    Вы не можете редактировать свои сообщения
    Вы не можете удалять свои сообщения
    Вы не можете голосовать в опросах
    Вы не можете прикреплять файлы к сообщениям
    Вы не можете скачивать файлы