BitTorrentTracker PerecTracker.org
BitTorrentTracker PerecTracker.org
    
Регистрация  ·  Вход
 
 · 
Забыли пароль?

  • Ведьма (Дмитрий Федоров) [2015, Драма, триллер, HDTVRip]

    Ответить на тему
     
    Автор Сообщение

    Flirldrerve

    Создавать темы 17-Июн-2016 02:05

           

    [Цитировать]

    Ведьма-Жанр: Драма, триллер
    Год выпуска: 2015
    Продолжительность: 01:27:03-Режиссёр: Дмитрий Федоров-В ролях: Мария Баева, Анатолий Горячев, Дарья Екамасова, Пётр Коврижных, Ольга Сырцова, Всеволод Николаев, Полина Шашуро, Максим Максимов, Софи Шуткина, Маргарита Спасибо-Описание: Действие картины происходит в летнем молодёжном лагере у моря. Тоня — тихая, замкнутая и доверчивая девочка становится соседкой Людки — яркой, сильной и расчетливой девицы. Они влюбляются в одного мальчика. Кажется, что у робкой Тони нет никаких шансов против сексуальной Людки, но вдруг выясняется, что Тоня обладает сверхъестественными способностями, которые не может контролировать. Нелюдимый затравленный подросток, не понимающий природу своей страшной силы. Окружающие считают её самой настоящей ведьмой, не подозревая, что на самом деле ведьма не она…
    Для кого-то эти каникулы станут последними, а те, кто смогут выжить — никогда уже не станут прежними…
    -
    Качество видео: HDTVRip
    Формат видео: AVI-Видео: 720x400 (16:9), 25 fps, XviD ~ 2049 Kbps , 0.285 bit/pixel
    Аудио: 48.0 kHz, AC3 Dolby Digital, 2 ch, 192 Kbps

    MediaInfo

    General
    Complete name : Downloads\Bedma.2015.O.HDTVRip.avi
    Format : AVI
    Format/Info : Audio Video Interleave
    File size : 1.37 GiB
    Duration : 1h 27mn
    Overall bit rate : 2 250 Kbps
    Writing application : VirtualDubMod 1.5.10.3 | www.virtualdub-fr.org || (build 2550/release)
    Writing library : VirtualDubMod build 2550/release
    Video #0
    ID : 0
    Format : MPEG-4 Visual
    Format profile : Advanced Simple@L5
    Format settings, BVOP : 2
    Format settings, QPel : No
    Format settings, GMC : No warppoints
    Format settings, Matrix : Default (MPEG)
    Codec ID : XVID
    Codec ID/Hint : XviD
    Duration : 1h 27mn
    Bit rate : 2 049 Kbps
    Width : 720 pixels
    Height : 400 pixels
    Display aspect ratio : 16:9
    Frame rate : 25.000 fps
    Color space : YUV
    Chroma subsampling : 4:2:0
    Bit depth : 8 bits
    Scan type : Progressive
    Compression mode : Lossy
    Bits/(Pixel*Frame) : 0.285
    Stream size : 1.25 GiB (91%)
    Writing library : XviD 1.2.1 (UTC 2008-12-04)
    Audio #1
    ID : 1
    Format : AC-3
    Format/Info : Audio Coding 3
    Mode extension : CM (complete main)
    Format settings, Endianness : Big
    Codec ID : 2000
    Duration : 1h 27mn
    Bit rate mode : Constant
    Bit rate : 192 Kbps
    Channel(s) : 2 channels
    Channel positions : Front: L R
    Sampling rate : 48.0 KHz
    Bit depth : 16 bits
    Compression mode : Lossy
    Stream size : 120 MiB (9%)
    Alignment : Split accross interleaves
    Interleave, duration : 40 ms (1.00 video frame)
    Interleave, preload duration : 500 ms

    Скриншот c названием фильма

    Скриншоты

    Скачать .torrent

    Скачать торрент-файл бесплатно и на максимальной скорости!

    Как скачивать? · Что такое торрент? · Рейтинг и ограничения

    !ВНИМАНИЕ!
    Сайт не распространяет и не хранит электронные версии произведений, а занимается лишь лишь предоставлением доступа к создаваемому пользователями каталогу ссылок на торрент-файлы, которые содержат только списки хеш-сумм, убедительная просьба с жалобами обращаться напрямую к пользователю. Файлы для обмена на трекере предоставлены пользователями сайта, и администрация не несёт ответственности за их содержание. Просьба не заливать файлы, защищенные авторскими правами, а также файлы нелегального содержания!


    _________________
    [Профиль] [ЛС]
    Показать сообщения:    
    Ответить на тему

    Текущее время: Сегодня, в 18:59

    Часовой пояс: GMT + 2



    Вы не можете начинать темы
    Вы не можете отвечать на сообщения
    Вы не можете редактировать свои сообщения
    Вы не можете удалять свои сообщения
    Вы не можете голосовать в опросах
    Вы не можете прикреплять файлы к сообщениям
    Вы не можете скачивать файлы