BitTorrentTracker PerecTracker.org
BitTorrentTracker PerecTracker.org
    
Регистрация  ·  Вход
 
 · 
Забыли пароль?

  • Восьмидесятые / Сезон: 6 / Серии: 1-13 из 13 (Роман Фокин) [2016, Комедия, мелодрама, SATRip]

    Ответить на тему
     
    Автор Сообщение

    rechyn

    Создавать темы 16-Июн-2016 22:11

           

    [Цитировать]

    Восьмидесятые
    Год выпуска: 2016
    Производство: Россия, Леан-М, Гуд Стори Меди
    Жанр: Комедия, мелодрама
    Продолжительность: ~00:25:00
    Режиссёр: Роман Фокин
    В ролях: Александр Якин, Наталья Земцова, Александр Половцев, Мария Аронова, Леонид Громов, Дмитрий Белоцерковский, Юлия Сулес, Александр Новицкий, Роман Фомин, Ирина Чипиженко, Александр Мальков, Никита Ефремов, Анастасия Балякина, Артур Ваха, Юрий Королев, Николай Надежкин, Дмитрий Шевченко, Зоя Давыдова, Олег Балашов, Анна Цуканова, Наталья Карпунина, Игорь Лагутин, Роман Маякин, Елена Лебедева, Виктория Левкина, Олег Смирнов, Олег Комаров (II), Эдуард Чемодаков, Игорь Бондаренко, Илья Соболев, Дмитрий Собачкин, Максим Ратинер, Алексей Паничев, Екатерина Коновалова, Руслан Спояло, Сергей Климков
    Описание: История про один из самых ностальгических периодов нашей страны подходит к своему концу. В заключительном шестом сезоне жизнь простых советских ребят станет ещё сложнее и хлопотнее, и приблизит героев к непростым 90-м. Раскроется и главная интрига сериала: Инга или Саша? Кого выберет главный герой Ваня: девушку, которую он любил всю свою жизнь, или ту, ради которой готов отправиться на Байконур?
    Реклама отсутствует!
    Релиз от BigFANGroup

    Все раздачи сериала:
    Сэмпл: http://multi-up.com/1103741
    Качество: SATRip
    Формат: AVI
    Видео кодек: XviD
    Аудио кодек: MP3
    Видео: 720x400 (1.80:1), 25 fps, XviD build 50 ~1649 kbps avg, 0.23 bit/pixel
    Аудио: 48 kHz, MPEG Layer 3, 2 ch, ~192.00 kbps avg-

    MI

    Полное имя : D:\загрузки\Восьмедисятые.6season.SATRip\Vosmidesjatye.s06.s01.2015.XviD.SATRip.BigFANGroup.avi
    Формат : AVI
    Формат/Информация : Audio Video Interleave
    Размер файла : 321 Мбайт
    Продолжительность : 24 м.
    Общий поток : 1852 Кбит/сек
    Программа кодирования : VirtualDubMod 1.5.10.3 | www.virtualdub-fr.org || (build 2550/release)
    Библиотека кодирования : VirtualDubMod build 2550/release
    Видео
    Идентификатор : 0
    Формат : MPEG-4 Visual
    Профиль формата : Advanced Simple@L5
    Параметр BVOP формата : 1
    Параметр QPel формата : Нет
    Параметр GMC формата : Без точки перехода
    Параметр матрицы формата : Default (H.263)
    Идентификатор кодека : XVID
    Идентификатор кодека/Подсказка : XviD
    Продолжительность : 24 м.
    Битрейт : 1650 Кбит/сек
    Ширина : 720 пикселей
    Высота : 400 пикселей
    Соотношение сторон : 16:9
    Частота кадров : 25,000 кадров/сек
    Цветовое пространство : YUV
    Субдискретизация насыщенности : 4:2:0
    Битовая глубина : 8 бит
    Тип развёртки : Чересстрочная
    Порядок развёртки : Нижнее поле первое
    Метод сжатия : С потерями
    Бит/(Пиксели*Кадры) : 0.229
    Размер потока : 286 Мбайт (89%)
    Библиотека кодирования : XviD 1.2.1 (UTC 2008-12-04)
    Аудио
    Идентификатор : 1
    Формат : MPEG Audio
    Версия формата : Version 1
    Профиль формата : Layer 3
    Идентификатор кодека : 55
    Идентификатор кодека/Подсказка : MP3
    Продолжительность : 24 м.
    Вид битрейта : Постоянный
    Битрейт : 192 Кбит/сек
    Каналы : 2 канала
    Частота : 48,0 КГц
    Метод сжатия : С потерями
    Размер потока : 33,2 Мбайт (10%)
    Выравнивание : Соединение по промежуткам
    Продолжительность промежутка : 40 мс. (1,00 видеокадр)
    Время предзагрузки промежутка : 504 мс.
    Библиотека кодирования : LAME3.99r
    Настройки программы : -m s -V 4 -q 2 -lowpass 18.6 -b 192

    Скриншоты


    Скачать .torrent

    Скачать торрент-файл бесплатно и на максимальной скорости!

    Как скачивать? · Что такое торрент? · Рейтинг и ограничения

    !ВНИМАНИЕ!
    Сайт не распространяет и не хранит электронные версии произведений, а занимается лишь лишь предоставлением доступа к создаваемому пользователями каталогу ссылок на торрент-файлы, которые содержат только списки хеш-сумм, убедительная просьба с жалобами обращаться напрямую к пользователю. Файлы для обмена на трекере предоставлены пользователями сайта, и администрация не несёт ответственности за их содержание. Просьба не заливать файлы, защищенные авторскими правами, а также файлы нелегального содержания!


    _________________
    [Профиль] [ЛС]
    Показать сообщения:    
    Ответить на тему

    Текущее время: Сегодня, в 02:49

    Часовой пояс: GMT + 2



    Вы не можете начинать темы
    Вы не можете отвечать на сообщения
    Вы не можете редактировать свои сообщения
    Вы не можете удалять свои сообщения
    Вы не можете голосовать в опросах
    Вы не можете прикреплять файлы к сообщениям
    Вы не можете скачивать файлы