BitTorrentTracker PerecTracker.org
BitTorrentTracker PerecTracker.org
    
Регистрация  ·  Вход
 
 · 
Забыли пароль?

  • Храброе сердце / Braveheart (Мэл Гибсон / Mel Gibson) [1995, США, Исторический, драма, военный, BDRip 720p] Dub (Blu-ray CEE) + 7x MVO + DVO + 4x AVO + 2x VO + Original Eng + Sub Rus, Eng

    Ответить на тему
     
    Автор Сообщение

    Light

    Создавать темы 16-Июн-2016 22:00

           

    [Цитировать]

    Храброе сердце / Braveheart-Страна: США
    Студия: B.H. Finance C.V., Icon Entertainmnet International, The Ladd Company
    Жанр: Исторический, драма, военный
    Год выпуска: 1995
    Продолжительность: 02:57:43
    Перевод 1: Профессиональный (дублированный) Blu-ray CEE
    Перевод 2: Профессиональный (многоголосый закадровый) н/о ?
    Перевод 3: Профессиональный (многоголосый закадровый) н/о ?
    Перевод 4: Профессиональный (многоголосый закадровый) ОРТ
    Перевод 5: Профессиональный (многоголосый закадровый) Лазер Видео
    Перевод 6: Профессиональный (многоголосый закадровый) Премьер Видео Фильм
    Перевод 7: Профессиональный (многоголосый закадровый) Киномания
    Перевод 8: Профессиональный (двухголосый закадровый) П. Гланц и И. Королёва
    Перевод 9: Профессиональный (многоголосый закадровый) LDV
    Перевод 10: Авторский (одноголосый закадровый) А. Гаврилов
    Перевод 11: Одноголосый закадровый Д. Есарев
    Перевод 12: Авторский (одноголосый закадровый) С. Визгунов (поздний)
    Перевод 13: Авторский (одноголосый закадровый) С. Визгунов (ранний)
    Перевод 14: Авторский (одноголосый закадровый) А. Кашкин
    Перевод 15: Студийный (одноголосый закадровый) Орбита
    Cубтитры: Русские, Английские
    Оригинальная аудиодорожка: Английский
    Режиссер: Мэл Гибсон / Mel Gibson
    В ролях: Мел Гибсон, Софи Марсо, Кэтрин МакКормак, Патрик МакГуэн, Ангус Макфэдьен, Брендан Глисон, Дэвид О'Хара, Иэн Бэннен, Шон Лоулор, Сэнди Нельсон, Джеймс Космо, Шон МакГинли, Элан Толл, Брайан Кокс, Питер Хэнли.
    Описание: 1280 год. Король Англии Эдуард I Длинноногий оккупировал значительную часть Шотландии и запретил шотландцам иметь оружие. В борьбе с отрядами короля погибают отец и брат десятилетнего Уильяма Уоллеса. Уоллеса на попечение берёт дядя — Аргайл.
    Спустя несколько лет Уоллес возвращается в родную деревню, в надежде завести семью и вести хозяйство, по возможности избегая «проблем». Уоллес начинает встречаться с девушкой, с которой был другом с детства — Маррон. Чтобы избежать установленного королем Эдуардом I унизительного «права первой ночи», Маррон и Уоллес венчаются тайно. Уоллес отбивает Маррон у пытающихся её изнасиловать английских солдат. Однако Маррон не успевает убежать из деревни и местный шериф убивает её. Уоллес вместе с горожанами поднимают восстание и убивают шерифа.
    Кэтрин Маккормак в роли Маррон
    Восстание разгорается, к отряду Уоллеса присоединяется всё больше шотландских кланов. Уоллес одерживает несколько побед над английскими войсками, в том числе в битве при Стерлингском мосту. Однако во время Фолкеркской битвы Шотландская знать предаёт Уоллеса и он терпит поражение. Уйдя в подполье, Уоллес убивает двух представителей знати, предавших его...-Рейтинг
    -Сэмпл
    Тип релиза: BDRip 720p
    Контейнер: MKV
    Исходник: Braveheart 1995 Bluray 1080p AVC TrueHD5.1-CHDBits
    Видео: 1280x546 (2,35:1), 23.976 fps, x264, ~6617 kbps | Encode by CtrlHD
    Аудио 1: Russian: 48 kHz, DTS, 3/2 (L,C,R,l,r) + LFE ch, ~755 kbps | Дубляж, Blu-ray CEE
    Аудио 2: Russian: 48 kHz, AC3, 3/2 (L,C,R,l,r) + LFE ch, ~384 kbps | Многоголосый закадровый, н/о
    Аудио 3: Russian: 48 kHz, AC3, 3/2 (L,C,R,l,r) + LFE ch, ~640 kbps | Многоголосый закадровый, н/о
    Аудио 4: Russian: 48 kHz, AC3, 2/0 (L,R) ch, ~224 kbps | Многоголосый закадровый, ОРТ
    Аудио 5: Russian: 48 kHz, AC3, 2/0 (L,R) ch, ~224 kbps | Многоголосый закадровый, Лазер Видео
    Аудио 6: Russian: 48 kHz, AC3, 2/0 (L,R) ch, ~224 kbps | Многоголосый закадровый, Премьер Видео Фильм
    Аудио 7: Russian: 48 kHz, AC3, 3/2 (L,C,R,l,r) + LFE ch, ~448 kbps | Многоголосый закадровый, Киномания
    Аудио 8: Russian: 48 kHz, AC3, 3/2 (L,C,R,l,r) + LFE ch, ~640 kbps | Двухголосый закадровый, П. Гланц и И. Королёва
    Аудио 9: Russian: 48 kHz, AC3, 3/2 (L,C,R,l,r) + LFE ch, ~640 kbps | Многоголосый закадровый, LDV
    Аудио 10: Russian: 48 kHz, AC3, 3/2 (L,C,R,l,r) + LFE ch, ~640 kbps | Одноголосый закадровый, А. Гаврилов
    Аудио 11: Russian: 48 kHz, AC3, 3/2 (L,C,R,l,r) + LFE ch, ~640 kbps | Одноголосый закадровый, Д. Есарев
    Аудио 12: Russian: 48 kHz, AC3, 3/2 (L,C,R,l,r) + LFE ch, ~640 kbps | Одноголосый закадровый, С. Визгунов (поздний)
    Аудио 13: Russian: 48 kHz, AC3, 2/0 (L,R) ch, ~192 kbps | Одноголосый закадровый, С. Визгунов (ранний)
    Аудио 14: Russian: 48 kHz, AC3, 2/0 (L,R) ch, ~224 kbps | Одноголосый закадровый, А. Кашкин
    Аудио 15: Russian: 48 kHz, AC3, 2/0 (L,R) ch, ~192 kbps | Одноголосый закадровый, Орбита
    Аудио 16: Ukrainian: 48 kHz, AC3, 2/0 (L,R) ch, ~192 kbps | Многоголосый закадровый, ТЕТ
    Аудио 17: Ukrainian: 48 kHz, AC3, 2/0 (L,R) ch, ~192 kbps | Двухголосый закадровый, ICTV
    Аудио 18: English: 48 kHz, AC3, 3/2 (L,C,R,l,r) + LFE ch, ~640 kbps
    Аудио 19: English: 48 kHz, AC3, 2/0 (L,R) ch, ~224 kbps | Commentary by Mel Gibson
    Субтитры: Русские (Forced, Full (Blu-ray EUR), Full, Commentary), Английские (Full, Commentary)
    Формат субтитров: softsub (SRT)

    Дополнительно

    За аудио дорожки спасибо: serin, JUSTKANT, Babangida13, серый75, alenavova, bora86bora, dima455668, Fikaloid, akchurin.a2011, Orgy.
    За сборку ремукса и наложение голосов спасибо Skazhutin. Спонсоры ремукса: nekazz, igrok2012, tambov68, Anton_111, Литти, Dervish, Andresoff, mvch73, banan87, goriathid, rembo123321.
    Перевод Д. Есарева, доступен благодаря ресурсу "Переулок Переводмана". Заказ перевода - mihey10.
    Заставка "Paramount Pictures" добавлена без перекодирования.
    Encode by CtrlHD (BoNo).
    Encoded date : 2015-04-28

    MediaInfo

    Общее
    Unique ID : 186886680205080774268198268494365292071 (0x8C9910BB867881AFAD1463F5953B7627)
    Complete name : E:\video_rutracker\Braveheart.1995.720p.BluRay.15xRus.2xUkr.2xEng.x264.mkv
    Format : Matroska
    Format version : Version 2
    File size : 18,5 Гбайт
    Duration : 2 ч. 57 м.
    Overall bit rate : 14,9 Мбит/сек
    Movie name : Braveheart.1995 | RuTracker | igrok2012
    Encoded date : UTC 2016-06-14 11:54:56
    Writing application : mkvmerge v8.3.0 ('Over the Horizon') 64bit
    Writing library : libebml v1.3.1 + libmatroska v1.4.2
    Cover : Yes
    Attachments : cover.jpg
    Видео
    ID : 1
    Format : AVC
    Format/Info : Advanced Video Codec
    Format profile : High@L4.1
    Format settings, CABAC : Да
    Format settings, ReFrames : 11 кадров
    Codec ID : V_MPEG4/ISO/AVC
    Duration : 2 ч. 57 м.
    Bit rate : 6617 Кбит/сек
    Width : 1280 пикселей
    Height : 546 пикселей
    Display aspect ratio : 2,35:1
    Frame rate mode : Постоянный
    Frame rate : 23,976 (24000/1001) кадра/сек
    Color space : YUV
    Chroma subsampling : 4:2:0
    Bit depth : 8 бит
    Scan type : Прогрессивная
    Bits/(Pixel*Frame) : 0.395
    Stream size : 8,21 Гбайт (45%)
    Title : Encode by CtrlHD
    Writing library : x264 core 142 r2431+42 c69a006 tMod [8-bit@all X86_64]
    Encoding settings : cabac=1 / ref=11 / deblock=1:-3:-3 / analyse=0x3:0x133 / me=tesa / subme=11 / psy=1 / fade_compensate=0.00 / psy_rd=0.95:0.00 / mixed_ref=1 / me_range=32 / chroma_me=1 / trellis=2 / 8x8dct=1 / cqm=0 / deadzone=21,11 / fast_pskip=0 / chroma_qp_offset=-2 / threads=6 / lookahead_threads=1 / sliced_threads=0 / nr=0 / decimate=0 / interlaced=0 / bluray_compat=0 / constrained_intra=0 / fgo=0 / bframes=8 / b_pyramid=2 / b_adapt=2 / b_bias=0 / direct=3 / weightb=1 / open_gop=0 / weightp=2 / keyint=250 / keyint_min=23 / scenecut=40 / intra_refresh=0 / rc=crf / mbtree=0 / crf=17.5000 / qcomp=0.60 / qpmin=0:0:0 / qpmax=69:69:69 / qpstep=4 / ip_ratio=1.40 / pb_ratio=1.30 / aq=4:0.90 / aq-sensitivity=10.00 / aq-factor=1.00:1.00:1.00 / aq2=0 / aq3=0
    Language : English
    Default : Да
    Forced : Нет
    Аудио #1
    ID : 2
    Format : DTS
    Format/Info : Digital Theater Systems
    Mode : 16
    Format settings, Endianness : Big
    Codec ID : A_DTS
    Duration : 2 ч. 57 м.
    Bit rate mode : Постоянный
    Bit rate : 755 Кбит/сек
    Channel(s) : 6 каналов
    Channel positions : Front: L C R, Side: L R, LFE
    Sampling rate : 48,0 КГц
    Frame rate : 93,750 кадра/сек (512 spf)
    Bit depth : 24 бит
    Compression mode : С потерями
    Stream size : 959 Мбайт (5%)
    Title : Дубляж, Blu-ray CEE
    Language : Russian
    Default : Да
    Forced : Нет
    Аудио #2
    ID : 3
    Format : AC-3
    Format/Info : Audio Coding 3
    Mode extension : CM (complete main)
    Format settings, Endianness : Big
    Codec ID : A_AC3
    Duration : 2 ч. 57 м.
    Bit rate mode : Постоянный
    Bit rate : 384 Кбит/сек
    Channel(s) : 6 каналов
    Channel positions : Front: L C R, Side: L R, LFE
    Sampling rate : 48,0 КГц
    Frame rate : 31,250 кадров/сек (1536 spf)
    Compression mode : С потерями
    Stream size : 488 Мбайт (3%)
    Title : Многоголосый закадровый
    Language : Russian
    Default : Нет
    Forced : Нет
    Аудио #3
    ID : 4
    Format : AC-3
    Format/Info : Audio Coding 3
    Mode extension : CM (complete main)
    Format settings, Endianness : Big
    Codec ID : A_AC3
    Duration : 2 ч. 57 м.
    Bit rate mode : Постоянный
    Bit rate : 640 Кбит/сек
    Channel(s) : 6 каналов
    Channel positions : Front: L C R, Side: L R, LFE
    Sampling rate : 48,0 КГц
    Frame rate : 31,250 кадров/сек (1536 spf)
    Compression mode : С потерями
    Stream size : 814 Мбайт (4%)
    Title : Многоголосый закадровый
    Language : Russian
    Default : Нет
    Forced : Нет
    Аудио #4
    ID : 5
    Format : AC-3
    Format/Info : Audio Coding 3
    Mode extension : CM (complete main)
    Format settings, Endianness : Big
    Codec ID : A_AC3
    Duration : 2 ч. 57 м.
    Bit rate mode : Постоянный
    Bit rate : 224 Кбит/сек
    Channel(s) : 2 канала
    Channel positions : Front: L R
    Sampling rate : 48,0 КГц
    Frame rate : 31,250 кадров/сек (1536 spf)
    Compression mode : С потерями
    Stream size : 285 Мбайт (2%)
    Title : Многоголосый закадровый, ОРТ
    Language : Russian
    Default : Нет
    Forced : Нет
    Аудио #5
    ID : 6
    Format : AC-3
    Format/Info : Audio Coding 3
    Mode extension : CM (complete main)
    Format settings, Endianness : Big
    Codec ID : A_AC3
    Duration : 2 ч. 57 м.
    Bit rate mode : Постоянный
    Bit rate : 224 Кбит/сек
    Channel(s) : 2 канала
    Channel positions : Front: L R
    Sampling rate : 48,0 КГц
    Frame rate : 31,250 кадров/сек (1536 spf)
    Compression mode : С потерями
    Stream size : 285 Мбайт (2%)
    Title : Многоголосый закадровый, Лазер Видео
    Language : Russian
    Default : Нет
    Forced : Нет
    Аудио #6
    ID : 7
    Format : AC-3
    Format/Info : Audio Coding 3
    Mode extension : CM (complete main)
    Format settings, Endianness : Big
    Codec ID : A_AC3
    Duration : 2 ч. 57 м.
    Bit rate mode : Постоянный
    Bit rate : 224 Кбит/сек
    Channel(s) : 2 канала
    Channel positions : Front: L R
    Sampling rate : 48,0 КГц
    Frame rate : 31,250 кадров/сек (1536 spf)
    Compression mode : С потерями
    Stream size : 285 Мбайт (2%)
    Title : Многоголосый закадровый, Премьер Видео Фильм
    Language : Russian
    Default : Нет
    Forced : Нет
    Аудио #7
    ID : 8
    Format : AC-3
    Format/Info : Audio Coding 3
    Mode extension : CM (complete main)
    Format settings, Endianness : Big
    Codec ID : A_AC3
    Duration : 2 ч. 57 м.
    Bit rate mode : Постоянный
    Bit rate : 448 Кбит/сек
    Channel(s) : 6 каналов
    Channel positions : Front: L C R, Side: L R, LFE
    Sampling rate : 48,0 КГц
    Frame rate : 31,250 кадров/сек (1536 spf)
    Compression mode : С потерями
    Stream size : 569 Мбайт (3%)
    Title : Многоголосый закадровый, Киномания
    Language : Russian
    Default : Нет
    Forced : Нет
    Аудио #8
    ID : 9
    Format : AC-3
    Format/Info : Audio Coding 3
    Mode extension : CM (complete main)
    Format settings, Endianness : Big
    Codec ID : A_AC3
    Duration : 2 ч. 57 м.
    Bit rate mode : Постоянный
    Bit rate : 640 Кбит/сек
    Channel(s) : 6 каналов
    Channel positions : Front: L C R, Side: L R, LFE
    Sampling rate : 48,0 КГц
    Frame rate : 31,250 кадров/сек (1536 spf)
    Compression mode : С потерями
    Stream size : 814 Мбайт (4%)
    Title : Двухголосый закадровый, П. Гланц и И. Королёва
    Language : Russian
    Default : Нет
    Forced : Нет
    Аудио #9
    ID : 10
    Format : AC-3
    Format/Info : Audio Coding 3
    Mode extension : CM (complete main)
    Format settings, Endianness : Big
    Codec ID : A_AC3
    Duration : 2 ч. 57 м.
    Bit rate mode : Постоянный
    Bit rate : 640 Кбит/сек
    Channel(s) : 6 каналов
    Channel positions : Front: L C R, Side: L R, LFE
    Sampling rate : 48,0 КГц
    Frame rate : 31,250 кадров/сек (1536 spf)
    Compression mode : С потерями
    Stream size : 814 Мбайт (4%)
    Title : Многоголосый закадровый, LDV
    Language : Russian
    Default : Нет
    Forced : Нет
    Аудио #10
    ID : 11
    Format : AC-3
    Format/Info : Audio Coding 3
    Mode extension : CM (complete main)
    Format settings, Endianness : Big
    Codec ID : A_AC3
    Duration : 2 ч. 57 м.
    Bit rate mode : Постоянный
    Bit rate : 640 Кбит/сек
    Channel(s) : 6 каналов
    Channel positions : Front: L C R, Side: L R, LFE
    Sampling rate : 48,0 КГц
    Frame rate : 31,250 кадров/сек (1536 spf)
    Compression mode : С потерями
    Stream size : 814 Мбайт (4%)
    Title : Одноголосый закадровый, А. Гаврилов
    Language : Russian
    Default : Нет
    Forced : Нет
    Аудио #11
    ID : 12
    Format : AC-3
    Format/Info : Audio Coding 3
    Mode extension : CM (complete main)
    Format settings, Endianness : Big
    Codec ID : A_AC3
    Duration : 2 ч. 57 м.
    Bit rate mode : Постоянный
    Bit rate : 640 Кбит/сек
    Channel(s) : 6 каналов
    Channel positions : Front: L C R, Side: L R, LFE
    Sampling rate : 48,0 КГц
    Frame rate : 31,250 кадров/сек (1536 spf)
    Compression mode : С потерями
    Stream size : 814 Мбайт (4%)
    Title : Одноголосый закадровый, Д. Есарев
    Language : Russian
    Default : Нет
    Forced : Нет
    Аудио #12
    ID : 13
    Format : AC-3
    Format/Info : Audio Coding 3
    Mode extension : CM (complete main)
    Format settings, Endianness : Big
    Codec ID : A_AC3
    Duration : 2 ч. 57 м.
    Bit rate mode : Постоянный
    Bit rate : 640 Кбит/сек
    Channel(s) : 6 каналов
    Channel positions : Front: L C R, Side: L R, LFE
    Sampling rate : 48,0 КГц
    Frame rate : 31,250 кадров/сек (1536 spf)
    Compression mode : С потерями
    Stream size : 814 Мбайт (4%)
    Title : Одноголосый закадровый, С. Визгунов (поздний)
    Language : Russian
    Default : Нет
    Forced : Нет
    Аудио #13
    ID : 14
    Format : AC-3
    Format/Info : Audio Coding 3
    Mode extension : CM (complete main)
    Format settings, Endianness : Big
    Codec ID : A_AC3
    Duration : 2 ч. 57 м.
    Bit rate mode : Постоянный
    Bit rate : 192 Кбит/сек
    Channel(s) : 2 канала
    Channel positions : Front: L R
    Sampling rate : 48,0 КГц
    Frame rate : 31,250 кадров/сек (1536 spf)
    Compression mode : С потерями
    Stream size : 244 Мбайт (1%)
    Title : Одноголосый закадровый, С. Визгунов (ранний)
    Language : Russian
    Default : Нет
    Forced : Нет
    Аудио #14
    ID : 15
    Format : AC-3
    Format/Info : Audio Coding 3
    Mode extension : CM (complete main)
    Format settings, Endianness : Big
    Codec ID : A_AC3
    Duration : 2 ч. 57 м.
    Bit rate mode : Постоянный
    Bit rate : 224 Кбит/сек
    Channel(s) : 2 канала
    Channel positions : Front: L R
    Sampling rate : 48,0 КГц
    Frame rate : 31,250 кадров/сек (1536 spf)
    Compression mode : С потерями
    Stream size : 285 Мбайт (2%)
    Title : Одноголосый закадровый, А. Кашкин
    Language : Russian
    Default : Нет
    Forced : Нет
    Аудио #15
    ID : 16
    Format : AC-3
    Format/Info : Audio Coding 3
    Mode extension : CM (complete main)
    Format settings, Endianness : Big
    Codec ID : A_AC3
    Duration : 2 ч. 57 м.
    Bit rate mode : Постоянный
    Bit rate : 192 Кбит/сек
    Channel(s) : 2 канала
    Channel positions : Front: L R
    Sampling rate : 48,0 КГц
    Frame rate : 31,250 кадров/сек (1536 spf)
    Compression mode : С потерями
    Stream size : 244 Мбайт (1%)
    Title : Одноголосый закадровый, Орбита
    Language : Russian
    Default : Нет
    Forced : Нет
    Аудио #16
    ID : 17
    Format : AC-3
    Format/Info : Audio Coding 3
    Mode extension : CM (complete main)
    Format settings, Endianness : Big
    Codec ID : A_AC3
    Duration : 2 ч. 57 м.
    Bit rate mode : Постоянный
    Bit rate : 192 Кбит/сек
    Channel(s) : 2 канала
    Channel positions : Front: L R
    Sampling rate : 48,0 КГц
    Frame rate : 31,250 кадров/сек (1536 spf)
    Compression mode : С потерями
    Stream size : 244 Мбайт (1%)
    Title : Многоголосый закадровый, ТЕТ
    Language : Ukrainian
    Default : Нет
    Forced : Нет
    Аудио #17
    ID : 18
    Format : AC-3
    Format/Info : Audio Coding 3
    Mode extension : CM (complete main)
    Format settings, Endianness : Big
    Codec ID : A_AC3
    Duration : 2 ч. 57 м.
    Bit rate mode : Постоянный
    Bit rate : 192 Кбит/сек
    Channel(s) : 2 канала
    Channel positions : Front: L R
    Sampling rate : 48,0 КГц
    Frame rate : 31,250 кадров/сек (1536 spf)
    Compression mode : С потерями
    Stream size : 244 Мбайт (1%)
    Title : Двухголосый закадровый, ICTV
    Language : Ukrainian
    Default : Нет
    Forced : Нет
    Аудио #18
    ID : 19
    Format : AC-3
    Format/Info : Audio Coding 3
    Mode extension : CM (complete main)
    Format settings, Endianness : Big
    Codec ID : A_AC3
    Duration : 2 ч. 57 м.
    Bit rate mode : Постоянный
    Bit rate : 640 Кбит/сек
    Channel(s) : 6 каналов
    Channel positions : Front: L C R, Side: L R, LFE
    Sampling rate : 48,0 КГц
    Frame rate : 31,250 кадров/сек (1536 spf)
    Compression mode : С потерями
    Stream size : 814 Мбайт (4%)
    Title : Original
    Language : English
    Default : Нет
    Forced : Нет
    Аудио #19
    ID : 20
    Format : AC-3
    Format/Info : Audio Coding 3
    Format profile : Dolby Digital
    Mode extension : CM (complete main)
    Format settings, Endianness : Big
    Codec ID : A_AC3
    Duration : 2 ч. 57 м.
    Bit rate mode : Постоянный
    Bit rate : 224 Кбит/сек
    Channel(s) : 2 канала
    Channel positions : Front: L R
    Sampling rate : 48,0 КГц
    Frame rate : 31,250 кадров/сек (1536 spf)
    Compression mode : С потерями
    Stream size : 285 Мбайт (2%)
    Title : Commentary by Mel Gibson
    Language : English
    Default : Нет
    Forced : Нет
    Текст #1
    ID : 21
    Format : UTF-8
    Codec ID : S_TEXT/UTF8
    Codec ID/Info : UTF-8 Plain Text
    Title : Forced
    Language : Russian
    Default : Да
    Forced : Нет
    Текст #2
    ID : 22
    Format : UTF-8
    Codec ID : S_TEXT/UTF8
    Codec ID/Info : UTF-8 Plain Text
    Title : Full (Blu-ray EUR)
    Language : Russian
    Default : Нет
    Forced : Нет
    Текст #3
    ID : 23
    Format : UTF-8
    Codec ID : S_TEXT/UTF8
    Codec ID/Info : UTF-8 Plain Text
    Title : Full
    Language : Russian
    Default : Нет
    Forced : Нет
    Текст #4
    ID : 24
    Format : UTF-8
    Codec ID : S_TEXT/UTF8
    Codec ID/Info : UTF-8 Plain Text
    Title : Commentary
    Language : Russian
    Default : Нет
    Forced : Нет
    Текст #5
    ID : 25
    Format : UTF-8
    Codec ID : S_TEXT/UTF8
    Codec ID/Info : UTF-8 Plain Text
    Title : Full
    Language : English
    Default : Нет
    Forced : Нет
    Текст #6
    ID : 26
    Format : UTF-8
    Codec ID : S_TEXT/UTF8
    Codec ID/Info : UTF-8 Plain Text
    Title : Commentary
    Language : English
    Default : Нет
    Forced : Нет
    Меню
    00:00:00.000 : en:The Wits of Men
    00:07:25.528 : en:Courage and a Free Heart
    00:16:23.857 : en:The Trouble with Scotland
    00:22:00.693 : en:A Nobleman's Rights
    00:34:16.887 : en:No Other, Forever
    00:39:49.679 : en:Application and Consequences of Laws
    00:56:04.987 : en:Gathering to Rebel
    01:00:01.264 : en:Ruthless Compromise
    01:07:28.043 : en:Madmen and Spies
    01:11:51.932 : en:Are You Ready for War
    01:18:59.734 : en:Terms and Offers
    01:33:03.203 : en:Guardian of Scotland
    01:43:44.719 : en:Negotiating with a Princess
    01:53:55.453 : en:Unity and Betrayal
    01:58:58.465 : en:Lands of Death
    02:17:15.477 : en:To Capture a Legend
    02:24:19.150 : en:The Pledge of the Bruce
    02:28:49.796 : en:The Crown's Price
    02:34:12.409 : en:A Queens Plea for Mercy
    02:36:32.091 : en:Freedom!
    02:46:54.085 : en:Bleed with Me
    02:50:42.522 : en:Credits

    Скриншоты

    Скриншоты сравнения

    CtrlHD | HiDt

    Скачать .torrent

    Скачать торрент-файл бесплатно и на максимальной скорости!

    Как скачивать? · Что такое торрент? · Рейтинг и ограничения

    !ВНИМАНИЕ!
    Сайт не распространяет и не хранит электронные версии произведений, а занимается лишь лишь предоставлением доступа к создаваемому пользователями каталогу ссылок на торрент-файлы, которые содержат только списки хеш-сумм, убедительная просьба с жалобами обращаться напрямую к пользователю. Файлы для обмена на трекере предоставлены пользователями сайта, и администрация не несёт ответственности за их содержание. Просьба не заливать файлы, защищенные авторскими правами, а также файлы нелегального содержания!


    _________________
    [Профиль] [ЛС]
    Показать сообщения:    
    Ответить на тему

    Текущее время: Сегодня, в 08:00

    Часовой пояс: GMT + 2



    Вы не можете начинать темы
    Вы не можете отвечать на сообщения
    Вы не можете редактировать свои сообщения
    Вы не можете удалять свои сообщения
    Вы не можете голосовать в опросах
    Вы не можете прикреплять файлы к сообщениям
    Вы не можете скачивать файлы