BitTorrentTracker PerecTracker.org
BitTorrentTracker PerecTracker.org
    
Регистрация  ·  Вход
 
 · 
Забыли пароль?

  • Ссссссс / Шипение кобры / Sssssss (Бернард Л. Ковальски / Bernard L. Kowalski) [1973, США, ужасы, фантастика, BDRip 720p] VO (almoner) + Original (Eng) + Sub (Rus, Eng)

    Ответить на тему
     
    Автор Сообщение

    Light

    Создавать темы 16-Июн-2016 22:00

           

    [Цитировать]

    Ссссссс / Шипение кобры / Sssssss«Terror is ready to strike!»-Страна: США
    Жанр: ужасы, фантастика
    Год выпуска: 1973
    Продолжительность: 01:38:52-Перевод: Одноголосый закадровый - [url=viewprofile&u=8781126]almoner[/url]
    Оригинальная аудиодорожка: English
    Cубтитры: Русские (полные - [url=viewprofile&u=8781126]almoner[/url]), English (full)
    Навигация по главам: присутствует - 8 глав-Режиссер: Бернард Л. Ковальски / Bernard L. Kowalski
    В ролях: Стразер Мартин, Дирк Бенедикт, Хезер Мензес, Ричард Б. Шалл, Тим О’Коннор, Джек Джинг, Кэтлин Кинг, Рэб Браун, Тед Гроссман, Чарльз Сил-Описание: Студент Дэвид решает подзаработать деньжат, нанявшись ассистентом к профессору Стоунеру, проводящим в своей лаборатории какие-то непонятные эксперименты со змеями. Вскоре выясняется, что Стоунеру удалось создать экспериментальную сыворотку, способную превращать человека в огромную кобру, и Дэвиду суждено стать её первым испытателем.- -Качество видео: BDRip 720p | исх. BDRemux 1080p - thx: [url=profile.php?mode=viewprofile&u=11511808]flaSI-I[/url]
    Формат: MKV-Видео: 1 280x696 (1.85:1), 23.976 fps, H.264, 8828.56 kb/s, 0.404 bit/pixel
    Аудио №1: 48.0 kHz, AC3 Dolby Digital, 2/0 (L,R) ch, ~192 kbps avg | Одноголосый закадровый - [url=viewprofile&u=8781126]almoner[/url]
    Аудио №2: 48.0 kHz, AC3 Dolby Digital, 2/0 (L,R) ch, ~640 kbps avg | English
    Субтитры №1: Русские (полные - [url=viewprofile&u=8781126]almoner[/url]) | *.srt
    Субтитры №2: English (full) | *.srt-

    MediaInfo

    General
    Unique ID : 173172744779419502393865103881268963070 (0x8247DB834D015971B63B6ECA821D26FE)
    Complete name : D:\Фильмы\Рипы\Sssssss.1973.BDRip 720p.eFK tRuAVC.mkv
    Format : Matroska
    Format version : Version 4 / Version 2
    File size : 6.67 GiB
    Duration : 1h 38mn
    Overall bit rate : 9 663 Kbps
    Movie name : Ссссссс / Шипение кобры / Sssssss (1973) - Release for rutracker
    Encoded date : UTC 2016-06-15 14:22:12
    Writing application : mkvmerge v7.6.0 ('Garden of Dreams') 64bit built on Feb 8 2015 13:04:34
    Writing library : libebml v1.3.1 + libmatroska v1.4.2
    Attachements : cover.jpg
    DURATION : 01:38:52.032000000
    NUMBER_OF_FRAMES : 185376
    NUMBER_OF_BYTES : 474562560
    _STATISTICS_WRITING_APP : mkvmerge v7.6.0 ('Garden of Dreams') 64bit built on Feb 8 2015 13:04:34
    _STATISTICS_WRITING_DATE_UT : 2016-06-15 14:22:12
    _STATISTICS_TAGS : BPS DURATION NUMBER_OF_FRAMES NUMBER_OF_BYTES
    Video
    ID : 1
    Format : AVC
    Format/Info : Advanced Video Codec
    Format profile : High@L4.1
    Format settings, CABAC : Yes
    Format settings, ReFrames : 9 frames
    Codec ID : V_MPEG4/ISO/AVC
    Duration : 1h 38mn
    Bit rate : 8 638 Kbps
    Width : 1 280 pixels
    Height : 696 pixels
    Display aspect ratio : 1.85:1
    Frame rate mode : Constant
    Frame rate : 23.976 fps
    Color space : YUV
    Chroma subsampling : 4:2:0
    Bit depth : 8 bits
    Scan type : Progressive
    Bits/(Pixel*Frame) : 0.404
    Stream size : 5.97 GiB (89%)
    Title : eFK tRuAVC
    Writing library : x264 core 148 r2692kMod 64f4e24
    Encoding settings : cabac=1 / ref=9 / deblock=1:-3:-3 / analyse=0x3:0x113 / me=umh / subme=11 / psy=1 / fade_compensate=0.00 / psy_rd=1.05:0.05 / mixed_ref=1 / me_range=48 / chroma_me=1 / trellis=2 / 8x8dct=1 / cqm=0 / deadzone=21,11 / fast_pskip=0 / chroma_qp_offset=-3 / threads=12 / lookahead_threads=3 / sliced_threads=0 / nr=0 / decimate=1 / interlaced=0 / bluray_compat=0 / constrained_intra=0 / fgo=0 / bframes=16 / b_pyramid=2 / b_adapt=2 / b_bias=0 / direct=3 / weightb=1 / open_gop=0 / weightp=2 / keyint=250 / keyint_min=23 / scenecut=40 / intra_refresh=0 / rc_lookahead=60 / rc=crf / mbtree=0 / crf=17.5000 / qcomp=0.70 / qpmin=0 / qpmax=69 / qpstep=4 / vbv_maxrate=62500 / vbv_bufsize=78125 / crf_max=0.0 / nal_hrd=none / filler=0 / ip_ratio=1.40 / pb_ratio=1.30 / aq=3:0.75
    Language : English
    Default : Yes
    Forced : No
    Color range : Limited
    Color primaries : BT.709
    Transfer characteristics : BT.709
    Matrix coefficients : BT.709
    DURATION : 01:38:51.843000000
    NUMBER_OF_FRAMES : 142222
    NUMBER_OF_BYTES : 6546201615
    _STATISTICS_WRITING_APP : mkvmerge v7.6.0 ('Garden of Dreams') 64bit built on Feb 8 2015 13:04:34
    _STATISTICS_WRITING_DATE_UT : 2016-06-15 14:22:12
    _STATISTICS_TAGS : BPS DURATION NUMBER_OF_FRAMES NUMBER_OF_BYTES
    Audio #1
    ID : 2
    Format : AC-3
    Format/Info : Audio Coding 3
    Mode extension : CM (complete main)
    Format settings, Endianness : Big
    Codec ID : A_AC3
    Duration : 1h 38mn
    Bit rate mode : Constant
    Bit rate : 192 Kbps
    Channel(s) : 2 channels
    Channel positions : Front: L R
    Sampling rate : 48.0 KHz
    Compression mode : Lossy
    Stream size : 136 MiB (2%)
    Title : Одноголосый закадровый - almoner
    Language : Russian
    Default : Yes
    Forced : No
    Audio #2
    ID : 3
    Format : AC-3
    Format/Info : Audio Coding 3
    Mode extension : CM (complete main)
    Format settings, Endianness : Big
    Codec ID : A_AC3
    Duration : 1h 38mn
    Bit rate mode : Constant
    Bit rate : 640 Kbps
    Channel(s) : 2 channels
    Channel positions : Front: L R
    Sampling rate : 48.0 KHz
    Compression mode : Lossy
    Stream size : 453 MiB (7%)
    Language : English
    Default : No
    Forced : No
    Text #1
    ID : 4
    Format : UTF-8
    Codec ID : S_TEXT/UTF8
    Codec ID/Info : UTF-8 Plain Text
    Title : полные - almoner
    Language : Russian
    Default : No
    Forced : No
    Text #2
    ID : 5
    Format : UTF-8
    Codec ID : S_TEXT/UTF8
    Codec ID/Info : UTF-8 Plain Text
    Title : full
    Language : English
    Default : No
    Forced : No
    Menu
    00:00:00.000 : en:00:00:00.000
    00:12:20.907 : en:00:12:20.907
    00:25:24.398 : en:00:25:24.398
    00:39:30.743 : en:00:39:30.743
    00:52:40.491 : en:00:52:40.491
    01:04:11.639 : en:01:04:11.639
    01:18:08.183 : en:01:18:08.183
    01:35:34.646 : en:01:35:34.646

    x264 log

    x264 [info]: frame I:838 Avg QP:15.79 size:126133
    x264 [info]: frame P:25034 Avg QP:16.88 size: 71050
    x264 [info]: frame B:116350 Avg QP:19.01 size: 40067
    x264 [info]: consecutive B-frames: 0.9% 0.9% 3.4% 7.8% 11.1% 54.3% 7.2% 4.1% 2.8% 2.0% 1.5% 1.8% 0.6% 0.4% 0.4% 0.3% 0.5%
    x264 [info]: mb I I16..4: 1.8% 90.8% 7.4%
    x264 [info]: mb P I16..4: 0.1% 35.2% 0.9% P16..4: 21.1% 28.8% 13.0% 0.0% 0.0% skip: 0.8%
    x264 [info]: mb B I16..4: 0.0% 6.4% 0.1% B16..8: 38.2% 27.1% 6.5% direct:11.9% skip: 9.8% L0:48.8% L1:38.4% BI:12.8%
    x264 [info]: 8x8 transform intra:97.6% inter:62.8%
    x264 [info]: direct mvs spatial:100.0% temporal:0.0%
    x264 [info]: coded y,uvDC,uvAC intra: 98.6% 89.4% 69.9% inter: 65.4% 42.5% 4.0%
    x264 [info]: i16 v,h,dc,p: 43% 10% 11% 35%
    x264 [info]: i8 v,h,dc,ddl,ddr,vr,hd,vl,hu: 12% 6% 11% 10% 13% 13% 10% 13% 12%
    x264 [info]: i4 v,h,dc,ddl,ddr,vr,hd,vl,hu: 15% 5% 4% 9% 16% 17% 12% 13% 10%
    x264 [info]: i8c dc,h,v,p: 45% 22% 19% 14%
    x264 [info]: Weighted P-Frames: Y:8.6% UV:4.4%
    x264 [info]: ref P L0: 35.4% 10.2% 19.7% 8.9% 8.1% 5.6% 5.5% 3.1% 3.3% 0.3% 0.0%
    x264 [info]: ref B L0: 61.3% 15.0% 9.0% 5.1% 3.9% 3.3% 1.9% 0.5%
    x264 [info]: ref B L1: 91.2% 8.8%
    x264 [info]: kb/s:8828.56

    Скріншоты

    Скачать .torrent

    Скачать торрент-файл бесплатно и на максимальной скорости!

    Как скачивать? · Что такое торрент? · Рейтинг и ограничения

    !ВНИМАНИЕ!
    Сайт не распространяет и не хранит электронные версии произведений, а занимается лишь лишь предоставлением доступа к создаваемому пользователями каталогу ссылок на торрент-файлы, которые содержат только списки хеш-сумм, убедительная просьба с жалобами обращаться напрямую к пользователю. Файлы для обмена на трекере предоставлены пользователями сайта, и администрация не несёт ответственности за их содержание. Просьба не заливать файлы, защищенные авторскими правами, а также файлы нелегального содержания!


    _________________
    [Профиль] [ЛС]
    Показать сообщения:    
    Ответить на тему

    Текущее время: Сегодня, в 08:52

    Часовой пояс: GMT + 2



    Вы не можете начинать темы
    Вы не можете отвечать на сообщения
    Вы не можете редактировать свои сообщения
    Вы не можете удалять свои сообщения
    Вы не можете голосовать в опросах
    Вы не можете прикреплять файлы к сообщениям
    Вы не можете скачивать файлы