BitTorrentTracker PerecTracker.org
BitTorrentTracker PerecTracker.org
    
Регистрация  ·  Вход
 
 · 
Забыли пароль?

  • В девятом номере (Девятый дом) / Inside No. 9 / Сезон: 1 / Серии: 1-6 из 6 (Дэвид Керр) [2014, Комедия, ужасы, WEB-DL 720p] DVO (HamsterStudio)

    Ответить на тему
     
    Автор Сообщение

    Columb

    Создавать темы 15-Мар-2014 09:32

           

    [Цитировать]

    В девятом номере (Девятый дом) / Inside No. 9
    Год выпуска: 2014
    Страна: Великобритания
    Жанр: Комедия, ужасы
    Продолжительность: 00:30:00
    Перевод: Профессиональный (двухголосый закадровый) HamsterStudio
    Русские субтитры: нет
    Режиссёр: Дэвид Керр
    В ролях: Стив Пембертон, Рис Шерсмит, Джемма Артертон, Дэвид Беделла, Адам Дикон, Тэмсин Грег, Конлет Хилл, Тим Ки, Кэтрин Паркинсон, Энн Рейд и др.
    Описание: Эпизоды длиной в 30 минут представляют собой законченные, несвязанные друг с другом истории. Cерии сочетают в себе два пласта, которые причудливо переплетаются: пласт тонкого, неожиданного, хорошо сыгранного юмора и пласт темного, страшного и трагичного. Подхватывая вас с двух сторон эти пласты оставляют вас на 30 минут с открытым ртом гадать, что происходит, вслушиваться в реплики и всматриваться в детали, смеяться над шутками и бояться за развязку.
    Авторы сериалов «Лига джентельменов» и «Психовилль», достойные представители черного британского юмора, снова объединились, чтобы написать «Внутри девятого номера».
    Релиз: по заказу
    Озвучка: Андрей Жариков и Анастасия Снегирёва
    Перевод: Sheypa
    Работа с видео, монтаж и сведение звука: Kiberline
    Сэмпл: http://multi-up.com/955298
    Качество: WEB-DL 720p
    Формат: MKV
    Видео кодек: AVC
    Аудио кодек: MP3
    Видео: 1280x720, 25 fps, 2 144 Kbps, 0.093 bit/pixel
    Аудио: 48 kHz, 2 ch, 192 kbps

    MediaInfo

    General
    Unique ID : 229316339414828429431809939611674653244 (0xAC84B8717BE7C8BCADC032C4AADEB23C)
    Complete name : G:\раздачи\Inside No.9 S01 (HamsterStudio)\Inside.№9.s01e01.720p.HDTV.HamsterStudio.mkv
    Format : Matroska
    Format version : Version 4 / Version 2
    File size : 490 MiB
    Duration : 29mn 33s
    Overall bit rate : 2 318 Kbps
    Encoded date : UTC 2014-02-26 09:16:49
    Writing application : mkvmerge v6.6.0 ('The Edge Of The In Between') built on Dec 1 2013 17:55:00
    Writing library : libebml v1.3.0 + libmatroska v1.4.1
    Video
    ID : 1
    Format : AVC
    Format/Info : Advanced Video Codec
    Format profile : High@L4.1
    Format settings, CABAC : Yes
    Format settings, ReFrames : 5 frames
    Codec ID : V_MPEG4/ISO/AVC
    Duration : 29mn 33s
    Bit rate : 2 144 Kbps
    Nominal bit rate : 4 872 Kbps
    Width : 1 280 pixels
    Height : 720 pixels
    Display aspect ratio : 16:9
    Frame rate : 25.000 fps
    Color space : YUV
    Chroma subsampling : 4:2:0
    Bit depth : 8 bits
    Scan type : Progressive
    Bits/(Pixel*Frame) : 0.093
    Stream size : 453 MiB (92%)
    Writing library : x264 core 142 r2389 956c8d8
    Encoding settings : cabac=1 / ref=5 / deblock=1:0:0 / analyse=0x3:0x113 / me=umh / subme=8 / psy=1 / psy_rd=1.00:0.00 / mixed_ref=1 / me_range=16 / chroma_me=1 / trellis=1 / 8x8dct=1 / cqm=0 / deadzone=21,11 / fast_pskip=1 / chroma_qp_offset=-2 / threads=12 / lookahead_threads=2 / sliced_threads=0 / nr=0 / decimate=1 / interlaced=0 / bluray_compat=0 / constrained_intra=0 / bframes=3 / b_pyramid=2 / b_adapt=2 / b_bias=0 / direct=3 / weightb=1 / open_gop=0 / weightp=2 / keyint=250 / keyint_min=25 / scenecut=40 / intra_refresh=0 / rc_lookahead=50 / rc=crf / mbtree=1 / crf=18.0 / qcomp=0.60 / qpmin=0 / qpmax=69 / qpstep=4 / ip_ratio=1.40 / aq=1:1.00
    Default : Yes
    Forced : No
    Matrix coefficients : BT.709-5, BT.1361, IEC 61966-2-4 709, SMPTE RP177
    Audio
    ID : 2
    Format : MPEG Audio
    Format version : Version 1
    Format profile : Layer 3
    Mode : Joint stereo
    Mode extension : MS Stereo
    Codec ID : A_MPEG/L3
    Codec ID/Hint : MP3
    Duration : 29mn 33s
    Bit rate mode : Constant
    Bit rate : 128 Kbps
    Channel(s) : 2 channels
    Sampling rate : 48.0 KHz
    Compression mode : Lossy
    Stream size : 27.1 MiB (6%)
    Default : Yes
    Forced : No

    Скриншоты

    Скачать .torrent

    Скачать торрент-файл бесплатно и на максимальной скорости!

    Как скачивать? · Что такое торрент? · Рейтинг и ограничения

    !ВНИМАНИЕ!
    Сайт не распространяет и не хранит электронные версии произведений, а занимается лишь лишь предоставлением доступа к создаваемому пользователями каталогу ссылок на торрент-файлы, которые содержат только списки хеш-сумм, убедительная просьба с жалобами обращаться напрямую к пользователю. Файлы для обмена на трекере предоставлены пользователями сайта, и администрация не несёт ответственности за их содержание. Просьба не заливать файлы, защищенные авторскими правами, а также файлы нелегального содержания!

    [Профиль] [ЛС]
    Показать сообщения:    
    Ответить на тему

    Текущее время: Сегодня, в 21:53

    Часовой пояс: GMT + 2



    Вы не можете начинать темы
    Вы не можете отвечать на сообщения
    Вы не можете редактировать свои сообщения
    Вы не можете удалять свои сообщения
    Вы не можете голосовать в опросах
    Вы не можете прикреплять файлы к сообщениям
    Вы не можете скачивать файлы