BitTorrentTracker PerecTracker.org
BitTorrentTracker PerecTracker.org
    
Регистрация  ·  Вход
 
 · 
Забыли пароль?

  • Горничная Линн / Das Zimmermadchen Lynn (Инго Хаэб / Ingo Haeb) [2014, Германия, Мелодрама, DVDRip-AVC] Sub Rus + Original Ger

    Ответить на тему
     
    Автор Сообщение

    Light

    Создавать темы 16-Июн-2016 22:00

           

    [Цитировать]

    Горничная Линн / Das Zimmermädchen Lynn
    Страна: Германия
    Жанр: Мелодрама
    Год выпуска: 2014
    Продолжительность: 01:26:00
    Перевод: Субтитры Jotunheimr
    Cубтитры: русские
    Оригинальная аудиодорожка: немецкий
    Режиссер: Инго Хаэб / Ingo Haeb
    В ролях: Вики Крипс, Лена Лауцемис
    Описание: Странная девушка Линн ищет пути сближения с людьми, но внутренние страхи не дают ей нормально общаться. Всё начинает меняется, когда она встречает Чьяру. Общение с ней даёт Линн уверенность в себе и приоткрывает дверь в мир.
    Доп. информация: Видео найдено в сети
    Сэмпл: http://sendfile.su/1242507
    Качество видео: DVDRip
    Формат видео: MKV
    Видео: V_MPEG4/ISO/AVC 720х300 2,40:1 25,000 кадров/сек 560 Кбит/сек
    Аудио: A_AC3 48,0 КГц 384 Кбит/сек Front: L C R, Side: L R, LFE
    Формат субтитров: softsub (SRT)

    MediaInfo

    Формат : Matroska
    Версия формата : Version 4 / Version 2
    Размер файла : 584 Мбайт
    Продолжительность : 1 ч. 26 м.
    Общий поток : 945 Кбит/сек
    Дата кодирования : UTC 2016-06-13 19:44:22
    Программа кодирования : mkvmerge v7.0.0 ('Where We Going') 32bit built on Jun 9 2014 15:08:34
    Библиотека кодирования : libebml v1.3.0 + libmatroska v1.4.1
    Видео
    Идентификатор : 1
    Формат : AVC
    Формат/Информация : Advanced Video Codec
    Профиль формата : High@L3.1
    Параметр CABAC формата : Да
    Параметр ReFrames формата : 5 кадров
    Идентификатор кодека : V_MPEG4/ISO/AVC
    Продолжительность : 1 ч. 26 м.
    Битрейт : 560 Кбит/сек
    Ширина : 720 пикселей
    Высота : 300 пикселей
    Соотношение сторон : 2,40:1
    Режим частоты кадров : Постоянный
    Частота кадров : 25,000 кадров/сек
    Цветовое пространство : YUV
    Субдискретизация насыщенности : 4:2:0
    Битовая глубина : 8 бит
    Тип развёртки : Прогрессивная
    Бит/(Пиксели*Кадры) : 0.104
    Размер потока : 345 Мбайт (59%)
    Библиотека кодирования : x264 core 148 r2638 7599210
    Настройки программы : cabac=1 / ref=5 / deblock=1:0:0 / analyse=0x3:0x133 / me=esa / subme=7 / psy=1 / psy_rd=1.00:0.15 / mixed_ref=1 / me_range=16 / chroma_me=1 / trellis=1 / 8x8dct=1 / cqm=0 / deadzone=21,11 / fast_pskip=0 / chroma_qp_offset=-3 / threads=4 / lookahead_threads=1 / sliced_threads=0 / nr=0 / decimate=1 / interlaced=0 / bluray_compat=0 / constrained_intra=0 / bframes=3 / b_pyramid=2 / b_adapt=1 / b_bias=0 / direct=3 / weightb=1 / open_gop=0 / weightp=2 / keyint=250 / keyint_min=25 / scenecut=40 / intra_refresh=0 / rc_lookahead=40 / rc=crf / mbtree=1 / crf=19.0 / qcomp=0.60 / qpmin=0 / qpmax=69 / qpstep=4 / ip_ratio=1.40 / aq=1:1.00
    Default : Да
    Forced : Нет
    Аудио
    Идентификатор : 2
    Формат : AC-3
    Формат/Информация : Audio Coding 3
    Расширение режима : CM (complete main)
    Параметр Endianness формата : Big
    Идентификатор кодека : A_AC3
    Продолжительность : 1 ч. 26 м.
    Вид битрейта : Постоянный
    Битрейт : 384 Кбит/сек
    Каналы : 6 каналов
    Расположение каналов : Front: L C R, Side: L R, LFE
    Частота : 48,0 КГц
    Частота кадров : 31,250 кадров/сек (1536 spf)
    Метод сжатия : С потерями
    Размер потока : 237 Мбайт (41%)
    Язык : new
    Default : Да
    Forced : Нет

    Пример субтитров

    1
    00:00:46,560 --> 00:00:49,598
    Когда я была маленькой,
    я нашла однажды ракушку.
    2
    00:00:49,840 --> 00:00:53,037
    Показала ее матери,
    и та сказала:
    3
    00:00:53,680 --> 00:00:57,913
    Прижми ее к уху, Линн,
    ты услышишь океан.
    4
    00:00:58,160 --> 00:01:00,117
    В ракушке спрятаны волны.
    5
    00:01:01,160 --> 00:01:02,355
    Я подумала:
    6
    00:01:02,640 --> 00:01:04,916
    Как может такая маленькая
    и хрупкая вещь
    7
    00:01:05,160 --> 00:01:09,119
    Прятать безбрежный
    и несокрушимый океан?
    8
    00:01:10,680 --> 00:01:15,117
    Я взяла ракушку с собой
    и продолжала слушать ее.
    9
    00:01:15,360 --> 00:01:19,593
    Даже ночью. Потому что
    не могла уснуть из-за шума волн.
    10
    00:01:20,400 --> 00:01:23,631
    А потом я как-то выпила стакан воды
    и прижала стакан к уху.
    11
    00:01:23,920 --> 00:01:25,399
    Просто так.
    12
    00:01:26,360 --> 00:01:28,476
    Я услышала те же звуки.
    13
    00:01:29,320 --> 00:01:31,880
    Тот же шум волн,
    тот же ветер.
    14
    00:01:32,960 --> 00:01:34,758
    Хорошо. А потом?
    15
    00:01:37,760 --> 00:01:40,957
    А потом мне стало ясно,
    что жизнь - ложь. Вся целиком.
    16
    00:01:43,480 --> 00:01:47,075
    Ты по-прежнему так думаешь?
    17
    00:01:48,400 --> 00:01:50,073
    Может быть, не вся, не целиком.
    18
    00:01:54,240 --> 00:02:00,230
    ГОРНИЧНАЯ ЛИНН
    19
    00:03:14,400 --> 00:03:15,754
    Мам, привет!
    20
    00:03:16,480 --> 00:03:18,437
    Привет, Линн!
    Хорошо, что позвонила.
    21
    00:03:19,200 --> 00:03:20,349
    Спасибо, что прибралась.

    Скриншот c названием фильма

    Скриншоты


    Скачать .torrent

    Скачать торрент-файл бесплатно и на максимальной скорости!

    Как скачивать? · Что такое торрент? · Рейтинг и ограничения

    !ВНИМАНИЕ!
    Сайт не распространяет и не хранит электронные версии произведений, а занимается лишь лишь предоставлением доступа к создаваемому пользователями каталогу ссылок на торрент-файлы, которые содержат только списки хеш-сумм, убедительная просьба с жалобами обращаться напрямую к пользователю. Файлы для обмена на трекере предоставлены пользователями сайта, и администрация не несёт ответственности за их содержание. Просьба не заливать файлы, защищенные авторскими правами, а также файлы нелегального содержания!


    _________________
    [Профиль] [ЛС]
    Показать сообщения:    
    Ответить на тему

    Текущее время: Сегодня, в 08:24

    Часовой пояс: GMT + 2



    Вы не можете начинать темы
    Вы не можете отвечать на сообщения
    Вы не можете редактировать свои сообщения
    Вы не можете удалять свои сообщения
    Вы не можете голосовать в опросах
    Вы не можете прикреплять файлы к сообщениям
    Вы не можете скачивать файлы