BitTorrentTracker PerecTracker.org
BitTorrentTracker PerecTracker.org
    
Регистрация  ·  Вход
 
 · 
Забыли пароль?

  • Горбун из Нотр Дама / The Hunchback of Notre Dame (Гари Труздейл / Gary Trousdale, Кирк Уайз / Kirk Wise) [1996, США, мюзикл, драма, мелодрама, BDRip] AVO (Ошурков) + AVO (Живов)

    Ответить на тему
     
    Автор Сообщение

    Flirldrerve

    Создавать темы 16-Июн-2016 17:55

           

    [Цитировать]

    Горбун из Нотр Дама / The Hunchback of Notre Dame
    Страна: США
    Жанр: мюзикл, драма, мелодрама
    Продолжительность: 01:30:49
    Год выпуска: 1996
    Перевод: Авторский (одноголосый закадровый) - Ошурков
    Перевод 2: Авторский (одноголосый закадровый) - Живов
    Русские субтитры: нет
    Режиссёр: Гари Труздейл / Gary Trousdale, Кирк Уайз / Kirk Wise
    Роли озвучивали: Деми Мур, Том Халс, Тони Джей, Кевин Клайн, Пол Кандел, Джейсон Александер, Мэри Кэй Бергман, Кори Бертон, Джим Каммингс, Билл Фагербакки
    Описание: Юная цыганка Эсмеральда зарабатывает на жизнь танцами. У нее есть друзья, но недоброжелатели столь могущественны, что Эсмеральда попадает в тюрьму. Звонарь Квазимодо устраивает девушке побег. А потом спасает ее, когда ослепленный ненавистью епископ Фролло пытается сам расправиться с ней. Этот мультфильм, в отличии от известного романа В. Гюго, кончается счастливо для главных героев.
    Доп. информация: Видео позаимствовано из раздачи kingsize87.
    Исходник аудио и оцифровка (Ошурков) - Aflame 300.
    Семпл: http://multi-up.com/1106019
    Качество: BDRip
    Формат: AVI
    Видео: XviD, 704:400, 23,976 fps, 1705 kbps
    Аудио: AC-3, 48,0 Hz, 2 ch, 192 kbps, русский, Ошурков
    Аудио 2: AC-3, 48,0 Hz, 6 ch, 384 kbps, русский, Живов
    Субтитры: отсутствуют

    Подробные технические данные

    ОбщееПолное имя : F:\Data Base\The Films\Cartoons\The Hunchback of Notre Dame\The Hunchback of Notre Dame.aviФормат : AVIФормат/Информация : Audio Video InterleaveРазмер файла : 1,46 ГбайтПродолжительность : 1 ч. 30 м.Общий поток : 2295 Кбит/секНазвание фильма : Горбун из Нотр Дама / The Hunchback of Notre Dame (1996) BDRipПрограмма кодирования : VirtualDubMod 1.5.10.2 (build 2540/release)Библиотека кодирования : VirtualDubMod build 2540/release
    ВидеоИдентификатор : 0Формат : MPEG-4 VisualПрофиль формата : Advanced Simple@L5Параметр BVOP формата : 1Параметр QPel формата : НетПараметр GMC формата : Без точки переходаПараметр матрицы формата : ВыборочнаяИдентификатор кодека : XVIDИдентификатор кодека/Подсказка : XviDПродолжительность : 1 ч. 30 м.Битрейт : 1705 Кбит/секШирина : 704 пикселяВысота : 400 пикселейСоотношение сторон : 16:9Частота кадров : 23,976 кадра/секЦветовое пространство : YUVСубдискретизация насыщенности : 4:2:0Битовая глубина : 8 битТип развёртки : ПрогрессивнаяМетод сжатия : С потерямиБит/(Пиксели*Кадры) : 0.253Размер потока : 1,08 Гбайт (74%)Библиотека кодирования : XviD 65
    Аудио #1Идентификатор : 1Формат : AC-3Формат/Информация : Audio Coding 3Расширение режима : CM (complete main)Параметр Endianness формата : BigИдентификатор кодека : 2000Продолжительность : 1 ч. 30 м.Вид битрейта : ПостоянныйБитрейт : 192 Кбит/секКаналы : 2 каналаРасположение каналов : Front: L RЧастота : 48,0 КГцБитовая глубина : 16 битМетод сжатия : С потерямиРазмер потока : 125 Мбайт (8%)Выравнивание : Разделение по промежуткамПродолжительность промежутка : 42 мс. (1,00 видеокадр)Время предзагрузки промежутка : 500 мс.
    Аудио #2Идентификатор : 2Формат : AC-3Формат/Информация : Audio Coding 3Расширение режима : CM (complete main)Параметр Endianness формата : BigИдентификатор кодека : 2000Продолжительность : 1 ч. 30 м.Вид битрейта : ПостоянныйБитрейт : 384 Кбит/секКаналы : 6 каналовРасположение каналов : Front: L C R, Side: L R, LFEЧастота : 48,0 КГцБитовая глубина : 16 битМетод сжатия : С потерямиРазмер потока : 249 Мбайт (17%)Выравнивание : Разделение по промежуткамПродолжительность промежутка : 42 мс. (1,00 видеокадр)Время предзагрузки промежутка : 500 мс.

    Скриншоты

    Скачать .torrent

    Скачать торрент-файл бесплатно и на максимальной скорости!

    Как скачивать? · Что такое торрент? · Рейтинг и ограничения

    !ВНИМАНИЕ!
    Сайт не распространяет и не хранит электронные версии произведений, а занимается лишь лишь предоставлением доступа к создаваемому пользователями каталогу ссылок на торрент-файлы, которые содержат только списки хеш-сумм, убедительная просьба с жалобами обращаться напрямую к пользователю. Файлы для обмена на трекере предоставлены пользователями сайта, и администрация не несёт ответственности за их содержание. Просьба не заливать файлы, защищенные авторскими правами, а также файлы нелегального содержания!


    _________________
    [Профиль] [ЛС]
    Показать сообщения:    
    Ответить на тему

    Текущее время: Сегодня, в 12:03

    Часовой пояс: GMT + 2



    Вы не можете начинать темы
    Вы не можете отвечать на сообщения
    Вы не можете редактировать свои сообщения
    Вы не можете удалять свои сообщения
    Вы не можете голосовать в опросах
    Вы не можете прикреплять файлы к сообщениям
    Вы не можете скачивать файлы