BitTorrentTracker PerecTracker.org
BitTorrentTracker PerecTracker.org
    
Регистрация  ·  Вход
 
 · 
Забыли пароль?

  • [ATV3] Белоснежка и Охотник 2 / The Huntsman: Winter\'s War (Седрик Николя-Троян / Cedric Nicolas-Troyan) [2016, США, Фэнтези, боевик, драма, приключения, WEB-DL, HD (1080p)] DUB + Original

    Ответить на тему
     
    Автор Сообщение

    rechyn

    Создавать темы 16-Июн-2016 17:55

           

    [Цитировать]

    Белоснежка и Охотник 2 / The Huntsman: Winter's War
    «The story before Snow White»
    6.153 / 10 6.20 / 10
    -Год выпуска: 2016
    Страна: США
    Жанр: Фэнтези, боевик, драма, приключения
    Продолжительность: 01:53:57
    Перевод: Дублированный (iTunes)
    Оригинальная аудиодорожка: Есть
    Cубтитры: Нет
    Режиссёр: Седрик Николя-Троян
    Сценарий: Эван Спилиотопулос, Крэйг Мазин, Ивэн Догерти
    Продюсер: Джо Рот, Сара Брэдшоу, Палак Патель
    Оператор: Фидон Папамайкл
    Композитор: Джеймс Ньютон Ховард
    Художник: Доминик Уоткинс, Эндрю Эклэнд-Сноу, Джон Франкиш
    Монтаж: Конрад Бафф IV
    В ролях: Крис Хемсворт, Шарлиз Терон, Джессика Честейн, Эмили Блант, Ник Фрост, Роб Брайдон, Шеридан Смит, Александра Роуч, Сопе Дирису, Сэм Хэзелдайн
    Бюджет: $115 000 000
    Сборы в США: $47 977 860
    Сборы в мире: + $116 121 146 = $164 099 006
    Сборы в России: $3 832 682
    Мировая премьера: 29 марта 2016
    Премьера (РФ): 14 апреля 2016, «UPI»
    Описание: Когда любовь уходит, сердце прекрасной девы обращается в лед. И даже сотни королевств не смогут сдержать поступь ее несметного воинства. Лишь Охотник не ведает страха. Сквозь проклятый лес он идет навстречу своей судьбе.-Качество исходника: WEB-DL 1080p (BlueBird)
    Качество: WEB-DL
    Тип: HD (1080p)
    Контейнер: M4V
    Видео: H.264, 1916x796, 2.40:1, 4 485 Kbps, 23.976 fps
    Аудио 1: Русский/Дублированный (iTunes), AAC / 2.0 / 160 Kbps / 48.0 KHz
    Аудио 2: Английский/Оригинальная дорожка, AAC / 2.0 / 160 Kbps / 48.0 KHz
    Аудио 3: Русский/Дублированный (iTunes), AC-3 / 5.1 / 384 Kbps / 48.0 KHz
    -

    iTunes Meta Tags

    Sort Name: Huntsman: Winter's War
    XID: Apple:vendor_id:2016-680394
    contentID: 1106053373
    Copyright: © 2015 Universal Studios. All Rights Reserved.
    Screenwriters: Эван Спилиотопулос, Крэйг Мазин, Ивэн Догерти
    Producers: Джо Рот, Сара Брэдшоу, Палак Патель
    Director: Седрик Николя-Троян
    Cast: Крис Хемсворт, Эмили Блант, Джессика Честейн, Сэм Клафлин, Шарлиз Терон, Софи Куксон, Колин Морган, Ник Фрост, Шеридан Смит, Александра Роуч
    Studio: Universal Pictures
    Rating: 4
    Long Description: Когда Равенна и её сестра, ледяная королева Фрейя, готовятся завоевать Землю, два перебежчика - охотник Эрик, ранее помогший Белоснежке победить Равенну, и его запретная возлюбленная Сара - намерены остановить их.
    Description: Когда Равенна и её сестра, ледяная королева Фрейя, готовятся завоевать Землю, два перебежчика - охотник Эрик, ранее помогший Белоснежке победить Равенну, и его запретная возлюбленная Сара - намерены остановить их.
    Release Date: 2016-04-07T08:00:00Z
    Genre: Action & Adventure
    Artist: Cedric Nicolas-Troyan
    Name: The Huntsman: Winter's War

    MediaInfo

    General
    Complete name : /Users/imac/HandBrake/The.Huntsman.Winter's.War.WEB-DL.1080p.m4v
    Format : MPEG-4
    Codec ID : M4V
    File size : 4.12 GiB
    Duration : 1h 53mn
    Overall bit rate mode : Variable
    Overall bit rate : 5 173 Kbps
    Movie name : The Huntsman: Winter's War
    Performer : Cedric Nicolas-Troyan
    Director : Седрик Николя-Троян
    Actor : Крис Хемсворт / Эмили Блант / Джессика Честейн / Сэм Клафлин / Шарлиз Терон / Софи Куксон / Колин Морган / Ник Фрост / Шеридан Смит / Александра Роуч
    Screenplay by : Эван Спилиотопулос / Крэйг Мазин / Ивэн Догерти
    Producer : Джо Рот / Сара Брэдшоу / Палак Патель
    Production studio : Universal Pictures
    Genre : Action & Adventure
    ContentType : Short Film
    Description : Когда Равенна и её сестра, ледяная королева Фрейя, готовятся завоевать Землю, два перебежчика - охотник Эрик, ранее помогший Белоснежке победить Равенну, и его запретная возлюбленная Сара - намерены остановить их.
    Recorded date : UTC 2016-04-07 08:00:00
    Encoded date : UTC 2016-06-16 08:54:28
    Tagged date : UTC 2016-06-16 08:55:52
    Copyright : © 2015 Universal Studios. All Rights Reserved.
    Cover : Yes
    Rating : None
    Title/Sort : Huntsman: Winter's War
    LongDescription : Когда Равенна и её сестра, ледяная королева Фрейя, готовятся завоевать Землю, два перебежчика - охотник Эрик, ранее помогший Белоснежке победить Равенну, и его запретная возлюбленная Сара - намерены остановить их.
    AppleStoreCatalogID : 1106053373
    Vendor : Apple:vendor_id:2016-680394
    ContentRating : mpaa|PG-13|300|
    Video #1
    ID : 1
    Format : AVC
    Format/Info : Advanced Video Codec
    Format profile : High@L4
    Format settings, CABAC : Yes
    Format settings, ReFrames : 5 frames
    Codec ID : avc1
    Codec ID/Info : Advanced Video Coding
    Duration : 1h 53mn
    Bit rate : 4 485 Kbps
    Width : 1 916 pixels
    Height : 796 pixels
    Display aspect ratio : 2.40:1
    Frame rate mode : Variable
    Frame rate : 23.976 fps
    Minimum frame rate : 23.810 fps
    Maximum frame rate : 24.390 fps
    Color space : YUV
    Chroma subsampling : 4:2:0
    Bit depth : 8 bits
    Scan type : Progressive
    Bits/(Pixel*Frame) : 0.123
    Stream size : 3.57 GiB (87%)
    Title : Main Program
    Language : English
    Encoded date : UTC 2016-06-16 08:54:28
    Tagged date : UTC 2016-06-16 08:54:35
    Color range : Limited
    Color primaries : BT.709
    Transfer characteristics : BT.709
    Matrix coefficients : BT.709
    Video #2
    ID : 6
    Format : JPEG
    Codec ID : jpeg
    Duration : 1h 53mn
    Bit rate mode : Variable
    Bit rate : 918 bps
    Width : 640 pixels
    Height : 265 pixels
    Display aspect ratio : 2.40:1
    Frame rate mode : Variable
    Frame rate : 0.003 fps
    Minimum frame rate : 0.002 fps
    Maximum frame rate : 0.008 fps
    Color space : YUV
    Chroma subsampling : 4:2:0
    Bit depth : 8 bits
    Compression mode : Lossy
    Bits/(Pixel*Frame) : 1.804
    Stream size : 747 KiB (0%)
    Title : Chapter Images
    Language : English
    Encoded date : UTC 2016-06-16 08:54:45
    Tagged date : UTC 2016-06-16 08:54:45
    Audio #1
    ID : 2
    Format : AAC
    Format/Info : Advanced Audio Codec
    Format profile : LC
    Codec ID : 40
    Duration : 1h 53mn
    Bit rate mode : Variable
    Bit rate : 157 Kbps
    Maximum bit rate : 218 Kbps
    Channel(s) : 2 channels
    Channel positions : Front: L R
    Sampling rate : 48.0 KHz
    Compression mode : Lossy
    Stream size : 128 MiB (3%)
    Title : Russian Stereo
    Language : Russian
    Encoded date : UTC 2016-06-16 09:41:59
    Tagged date : UTC 2016-06-16 09:42:05
    Audio #2
    ID : 3
    Format : AAC
    Format/Info : Advanced Audio Codec
    Format profile : LC
    Codec ID : 40
    Duration : 1h 53mn
    Bit rate mode : Variable
    Bit rate : 155 Kbps
    Maximum bit rate : 230 Kbps
    Channel(s) : 2 channels
    Channel positions : Front: L R
    Sampling rate : 48.0 KHz
    Compression mode : Lossy
    Stream size : 127 MiB (3%)
    Title : English Stereo
    Language : English
    Encoded date : UTC 2016-06-16 09:41:59
    Tagged date : UTC 2016-06-16 09:42:05
    Audio #3
    ID : 4
    Format : AC-3
    Format/Info : Audio Coding 3
    Mode extension : CM (complete main)
    Format settings, Endianness : Big
    Codec ID : ac-3
    Duration : 1h 53mn
    Bit rate mode : Constant
    Bit rate : 384 Kbps
    Channel(s) : 6 channels
    Channel positions : Front: L C R, Side: L R, LFE
    Sampling rate : 48.0 KHz
    Bit depth : 16 bits
    Compression mode : Lossy
    Stream size : 313 MiB (7%)
    Title : Russian DD 5.1
    Language : Russian
    Encoded date : UTC 2016-06-16 08:54:28
    Tagged date : UTC 2016-06-16 08:54:35
    Menu #1
    00:00:00.000 : глава 1
    00:06:28.000 : глава 2
    00:09:28.000 : глава 3
    00:15:05.000 : глава 4
    00:21:35.000 : глава 5
    00:26:54.000 : глава 6
    00:32:36.000 : глава 7
    00:36:53.000 : глава 8
    00:42:16.000 : глава 9
    00:47:29.000 : глава 10
    00:54:39.000 : глава 11
    00:59:28.000 : глава 12
    01:06:20.000 : глава 13
    01:10:22.000 : глава 14
    01:17:47.000 : глава 15
    01:23:19.000 : глава 16
    01:28:08.000 : глава 17
    01:33:42.000 : глава 18
    01:42:22.000 : глава 19
    01:44:28.000 : глава 20
    Menu #2
    ID : 5
    Codec ID : text
    Duration : 1h 53mn
    Language : English
    Encoded date : UTC 2016-06-16 08:54:37
    Tagged date : UTC 2016-06-16 08:54:37
    00:00:00.000 : глава 1
    00:06:28.000 : глава 2
    00:09:28.000 : глава 3
    00:15:05.000 : глава 4
    00:21:35.000 : глава 5
    00:26:54.000 : глава 6
    00:32:36.000 : глава 7
    00:36:53.000 : глава 8
    00:42:16.000 : глава 9
    00:47:29.000 : глава 10
    00:54:39.000 : глава 11
    00:59:28.000 : глава 12
    01:06:20.000 : глава 13
    01:10:22.000 : глава 14
    01:17:47.000 : глава 15
    01:23:19.000 : глава 16
    01:28:08.000 : глава 17
    01:33:42.000 : глава 18
    01:42:22.000 : глава 19
    01:44:28.000 : глава 20
    Bit rate mode : VBR

    Скриншоты

    -

    Релиз подготовлен для просмотра на Apple TV, iPad, iPhone, iPod Touch.
    Для просмотра данного релиза на компьютере с ОС Windows рекомендуется использовать VLC media player
    Скачать .torrent

    Скачать торрент-файл бесплатно и на максимальной скорости!

    Как скачивать? · Что такое торрент? · Рейтинг и ограничения

    !ВНИМАНИЕ!
    Сайт не распространяет и не хранит электронные версии произведений, а занимается лишь лишь предоставлением доступа к создаваемому пользователями каталогу ссылок на торрент-файлы, которые содержат только списки хеш-сумм, убедительная просьба с жалобами обращаться напрямую к пользователю. Файлы для обмена на трекере предоставлены пользователями сайта, и администрация не несёт ответственности за их содержание. Просьба не заливать файлы, защищенные авторскими правами, а также файлы нелегального содержания!


    _________________
    [Профиль] [ЛС]
    Показать сообщения:    
    Ответить на тему

    Текущее время: Сегодня, в 06:02

    Часовой пояс: GMT + 2



    Вы не можете начинать темы
    Вы не можете отвечать на сообщения
    Вы не можете редактировать свои сообщения
    Вы не можете удалять свои сообщения
    Вы не можете голосовать в опросах
    Вы не можете прикреплять файлы к сообщениям
    Вы не можете скачивать файлы