BitTorrentTracker PerecTracker.org
BitTorrentTracker PerecTracker.org
    
Регистрация  ·  Вход
 
 · 
Забыли пароль?

  • Топ-модель / The Model (Мадс Маттисен / Mads Matthiesen) [2016, Дания, мелодрама, WEB-DLRip] MVO

    Ответить на тему
     
    Автор Сообщение

    rechyn

    Создавать темы 16-Июн-2016 09:45

           

    [Цитировать]

    Топ-модель / The Model
    Страна: Дания
    Жанр: мелодрама
    Год выпуска: 2016
    Продолжительность: 01:43:36
    Перевод: Профессиональный (многоголосый закадровый)
    Cубтитры: нет
    Режиссер: Мадс Маттисен / Mads Matthiesen
    В ролях: Мария Палм, Эд Скрейн, Ивонник Мюллер, Кристиан Абарт, Доминик Оллбёрн, Вёрджил Брэмли, Алексия Шико, Тьерри Анкиссе, Марко Ильсё, Леонардо Лакария
    Описание: Когда начинающая модель из глубинки Эмма получает приглашение в одно из ведущих модных агентств, она, ни секунды не сомневаясь, отправляется навстречу своей мечте в Париж. На одной из фотосессий она встречает успешного и привлекательного фотографа Шейна Уайта в которого влюбляется. Однако мир моды диктует свои условия и то, что поначалу складывалось для нее как сказка, начинает постепенно перерастать в опасную одержимость и настоящий ночной кошмар.
    Сэмпл: http://sendfile.su/1242654
    Качество видео: WEB-DLRip
    Формат видео: AVI
    Видео: 688x384 (1.79:1), 25 fps, XviD build 73 ~1604 kbps avg, 0.24 bit/pixel
    Аудио: 48 kHz, AC3 Dolby Digital, 2/0 (L,R) ch, ~384 kbps

    MediaInfo

    General
    Complete name : E:\Zona Downloads\Top.Model.2016.WEB-DLRip.avi
    Format : AVI
    Format/Info : Audio Video Interleave
    File size : 1.45 GiB
    Duration : 1h 43mn
    Overall bit rate : 1 998 Kbps
    Writing application : VirtualDubMod 1.5.10.3 | www.virtualdub-fr.org || (build 2550/release)
    Writing library : VirtualDubMod build 2550/release
    Video
    ID : 0
    Format : MPEG-4 Visual
    Format profile : Advanced Simple@L5
    Format settings, BVOP : 1
    Format settings, QPel : No
    Format settings, GMC : No warppoints
    Format settings, Matrix : Custom
    Codec ID : XVID
    Codec ID/Hint : XviD
    Duration : 1h 43mn
    Bit rate : 1 605 Kbps
    Width : 688 pixels
    Height : 384 pixels
    Display aspect ratio : 16:9
    Frame rate : 25.000 fps
    Color space : YUV
    Chroma subsampling : 4:2:0
    Bit depth : 8 bits
    Scan type : Progressive
    Compression mode : Lossy
    Bits/(Pixel*Frame) : 0.243
    Stream size : 1.16 GiB (80%)
    Writing library : XviD 73
    Audio
    ID : 1
    Format : AC-3
    Format/Info : Audio Coding 3
    Mode extension : CM (complete main)
    Format settings, Endianness : Big
    Codec ID : 2000
    Duration : 1h 43mn
    Bit rate mode : Constant
    Bit rate : 384 Kbps
    Channel(s) : 2 channels
    Channel positions : Front: L R
    Sampling rate : 48.0 KHz
    Bit depth : 16 bits
    Compression mode : Lossy
    Stream size : 285 MiB (19%)
    Alignment : Split accross interleaves
    Interleave, duration : 40 ms (1.00 video frame)
    Interleave, preload duration : 500 ms

    Скриншот c названием фильма

    Скриншоты

    Скачать .torrent

    Скачать торрент-файл бесплатно и на максимальной скорости!

    Как скачивать? · Что такое торрент? · Рейтинг и ограничения

    !ВНИМАНИЕ!
    Сайт не распространяет и не хранит электронные версии произведений, а занимается лишь лишь предоставлением доступа к создаваемому пользователями каталогу ссылок на торрент-файлы, которые содержат только списки хеш-сумм, убедительная просьба с жалобами обращаться напрямую к пользователю. Файлы для обмена на трекере предоставлены пользователями сайта, и администрация не несёт ответственности за их содержание. Просьба не заливать файлы, защищенные авторскими правами, а также файлы нелегального содержания!


    _________________
    [Профиль] [ЛС]
    Показать сообщения:    
    Ответить на тему

    Текущее время: Сегодня, в 07:58

    Часовой пояс: GMT + 2



    Вы не можете начинать темы
    Вы не можете отвечать на сообщения
    Вы не можете редактировать свои сообщения
    Вы не можете удалять свои сообщения
    Вы не можете голосовать в опросах
    Вы не можете прикреплять файлы к сообщениям
    Вы не можете скачивать файлы