BitTorrentTracker PerecTracker.org
BitTorrentTracker PerecTracker.org
    
Регистрация  ·  Вход
 
 · 
Забыли пароль?

  • Исмаэль / Ismael (Марсело Пиньейро / Marcelo Pineyro) [2013, Испания, Драма, DVDRip] MVO

    Ответить на тему
     
    Автор Сообщение

    Light

    Создавать темы 16-Июн-2016 09:45

           

    [Цитировать]

    Исмаэль / Ismael
    Страна: Испания
    Жанр: Драма
    Год выпуска: 2013
    Продолжительность: 01:46:37
    Перевод: Профессиональный (многоголосый закадровый)
    Cубтитры: нет
    Оригинальная аудиодорожка: нет
    Режиссер: Марсело Пиньейро / Marcelo Pineyro
    В ролях: Белен Руэда, Марио Касас, Серхи Лопес, Элла Квеку, Хуан Диего Ботто, Ларссон ду Амарал, Микель Иглесиас, Nabil Bouyazzam, Samad El Gandhi, Michael Harran
    Описание: Восьмилетний Исмаэль Тчоу отправляется на поезде из Мадрида в Барселону. Он убежал из дома, потому что хочет познакомиться с Феликсом Амбросом. Его единственная зацепка — письмо, адресованное его матери, и указанный в нем адрес квартиры в Барселоне. Мальчик приезжает по адресу, но в квартире вместо своего отца он встречает элегантную женщину лет пятидесяти, Нору, которая оказывается матерью Феликса и, таким образом, его бабушкой. В результате этой встречи, спровоцированной желанием Исмаэля познакомиться со своим биологическим отцом, все персонажи постараются свести счеты со своим прошлым.

    Сэмпл: http://multi-up.com/1106022
    Качество видео: DVDRip
    Формат видео: AVI
    Видео: XviD, 720x304 (2.35:1), 25,000 fps, 1765 kbps
    Аудио: AC3, 48000Hz, 2 ch, 192 kbps, русский

    MediaInfo

    General
    Complete name : E:\Downloads\Ismael.2013.DVDRip.1460MB.avi
    Format : AVI
    Format/Info : Audio Video Interleave
    File size : 1.46 GiB
    Duration : 1h 46mn
    Overall bit rate : 1 967 Kbps
    Writing application : VirtualDubMod 1.5.10.3 | www.virtualdub-fr.org || (build 2550/release)
    Writing library : VirtualDubMod build 2550/release
    Video
    ID : 0
    Format : MPEG-4 Visual
    Format profile : Advanced Simple@L5
    Format settings, BVOP : 1
    Format settings, QPel : No
    Format settings, GMC : No warppoints
    Format settings, Matrix : Default (MPEG)
    Codec ID : XVID
    Codec ID/Hint : XviD
    Duration : 1h 46mn
    Bit rate : 1 765 Kbps
    Width : 720 pixels
    Height : 304 pixels
    Display aspect ratio : 2.35:1
    Frame rate : 25.000 fps
    Color space : YUV
    Chroma subsampling : 4:2:0
    Bit depth : 8 bits
    Scan type : Progressive
    Compression mode : Lossy
    Bits/(Pixel*Frame) : 0.323
    Stream size : 1.31 GiB (90%)
    Writing library : XviD 1.2.1 (UTC 2008-12-04)
    Audio
    ID : 1
    Format : AC-3
    Format/Info : Audio Coding 3
    Mode extension : CM (complete main)
    Format settings, Endianness : Big
    Codec ID : 2000
    Duration : 1h 46mn
    Bit rate mode : Constant
    Bit rate : 192 Kbps
    Channel(s) : 2 channels
    Channel positions : Front: L R
    Sampling rate : 48.0 KHz
    Compression mode : Lossy
    Stream size : 146 MiB (10%)
    Alignment : Split accross interleaves
    Interleave, duration : 40 ms (1.00 video frame)
    Interleave, preload duration : 500 ms

    Скриншот c названием фильма

    Скриншоты

    Скачать .torrent

    Скачать торрент-файл бесплатно и на максимальной скорости!

    Как скачивать? · Что такое торрент? · Рейтинг и ограничения

    !ВНИМАНИЕ!
    Сайт не распространяет и не хранит электронные версии произведений, а занимается лишь лишь предоставлением доступа к создаваемому пользователями каталогу ссылок на торрент-файлы, которые содержат только списки хеш-сумм, убедительная просьба с жалобами обращаться напрямую к пользователю. Файлы для обмена на трекере предоставлены пользователями сайта, и администрация не несёт ответственности за их содержание. Просьба не заливать файлы, защищенные авторскими правами, а также файлы нелегального содержания!


    _________________
    [Профиль] [ЛС]
    Показать сообщения:    
    Ответить на тему

    Текущее время: Сегодня, в 11:49

    Часовой пояс: GMT + 2



    Вы не можете начинать темы
    Вы не можете отвечать на сообщения
    Вы не можете редактировать свои сообщения
    Вы не можете удалять свои сообщения
    Вы не можете голосовать в опросах
    Вы не можете прикреплять файлы к сообщениям
    Вы не можете скачивать файлы