BitTorrentTracker PerecTracker.org
BitTorrentTracker PerecTracker.org
    
Регистрация  ·  Вход
 
 · 
Забыли пароль?

  • Его последний забег / Sein letztes Rennen (Карен Монкрифф / Karen Moncrieff) [2013, Германия, драма, спорт, BDRip 1080p] VO (ViruseProject) + Sub Rus, Ger + Original Ger

    Ответить на тему
     
    Автор Сообщение

    Light

    Создавать темы 15-Июн-2016 17:27

           

    [Цитировать]

    Его последний забег / Sein letztes Rennen
    Страна: Германия
    Жанр: драма, спорт
    Год выпуска: 2013
    Продолжительность: 01:54:26
    Перевод: Одноголосый закадровый ViruseProject
    Cубтитры: русские, немецкие
    Оригинальная аудиодорожка: немецкий
    Режиссер: Карен Монкрифф / Karen Moncrieff
    В ролях: Дитер Халлерворден, Татя Зайбт, Хайке Макач, Хайнц В. Крюкеберг, Фредерик Лау и др.
    Описание: Фильм рассказывает о некогда знаменитом бегуне и олимпийском чемпионе по марафону Пауле Аверхоффе. Работающая стюардессой дочь больше не может заботиться о нём и вынуждает его отправиться в дом престарелых. Неудовлетворённый жизнью там, 70-летний Пауль начинает готовиться к Берлинскому марафону не просто ради участия, а чтобы выиграть забег. Все считают его сумасшедшим, и только обитатели дома престарелых помнят его великие победы и во всём поддерживают его.
    Доп. информация: Награды: Премия Немецкой Киноакадемии в категории "лучшая мужская роль" - Дитер Халлерворден
    Сэмпл:
    Качество видео: BDRip 1080p
    Формат видео: MKV
    Видео: MPEG4 Video (H264) 1920x816 24fps
    Аудио: 48 kHz, AC3 Dolby Digital, 3/2 (L,C,R,l,r) + LFE ch, ~384 kbps
    Аудио 2: DTS 48000Hz 6ch 1536kbps
    Формат субтитров: softsub (SRT)
    Доп. информация о субтитрах: русские (перевод: Максим Вареник aka Max®Ludwig под редакцией Марии Игнатовой aka mig_88)

    MediaInfo

    Общее
    Уникальный идентификатор : 192881666329049044805212014774578383256 (0x911BA85E69F77B51B1182FD687D50998)
    Полное имя : D:\Film\Hd\rennen.mkv
    Формат : Matroska
    Версия формата : Version 4 / Version 2
    Размер файла : 10,8 Гбайт
    Продолжительность : 1 ч. 54 м.
    Общий поток : 13,5 Мбит/сек
    Дата кодирования : UTC 2016-06-14 14:38:36
    Программа кодирования : mkvmerge v9.2.0 ('Photograph') 64bit
    Библиотека кодирования : libebml v1.3.3 + libmatroska v1.4.4
    Attachments : Sein.letztes.Rennen.2013.German.DTS.1080p.BluRay.x264-iNCEPTiON.nfo
    Видео
    Идентификатор : 1
    Формат : AVC
    Формат/Информация : Advanced Video Codec
    Профиль формата : High@L4.1
    Параметр CABAC формата : Да
    Параметр ReFrames формата : 5 кадров
    Идентификатор кодека : V_MPEG4/ISO/AVC
    Продолжительность : 1 ч. 54 м.
    Битрейт : 11,6 Мбит/сек
    Ширина : 1920 пикселей
    Высота : 816 пикселей
    Соотношение сторон : 2,35:1
    Режим частоты кадров : Постоянный
    Частота кадров : 24,000 кадра/сек
    Цветовое пространство : YUV
    Субдискретизация насыщенности : 4:2:0
    Битовая глубина : 8 бит
    Тип развёртки : Прогрессивная
    Бит/(Пиксели*Кадры) : 0.309
    Размер потока : 9,29 Гбайт (86%)
    Заголовок : Sein letztes Rennen (2013) [Encode by iNCEPTiON]
    Библиотека кодирования : x264 core 138 r2358 9e941d1
    Настройки программы : cabac=1 / ref=5 / deblock=1:-3:-3 / analyse=0x3:0x113 / me=umh / subme=9 / psy=1 / psy_rd=1.00:0.00 / mixed_ref=1 / me_range=24 / chroma_me=1 / trellis=1 / 8x8dct=1 / cqm=0 / deadzone=21,11 / fast_pskip=1 / chroma_qp_offset=-2 / threads=6 / lookahead_threads=1 / sliced_threads=0 / nr=0 / decimate=1 / interlaced=0 / bluray_compat=0 / constrained_intra=0 / bframes=5 / b_pyramid=2 / b_adapt=2 / b_bias=0 / direct=3 / weightb=1 / open_gop=0 / weightp=2 / keyint=240 / keyint_min=22 / scenecut=40 / intra_refresh=0 / rc_lookahead=50 / rc=crf / mbtree=1 / crf=17.0 / qcomp=0.60 / qpmin=0 / qpmax=69 / qpstep=4 / vbv_maxrate=62500 / vbv_bufsize=78125 / crf_max=0.0 / nal_hrd=none / ip_ratio=1.40 / aq=1:1.00
    Язык : German
    Default : Да
    Forced : Нет
    Аудио #1
    Идентификатор : 2
    Формат : AC-3
    Формат/Информация : Audio Coding 3
    Расширение режима : CM (complete main)
    Параметр Endianness формата : Big
    Идентификатор кодека : A_AC3
    Продолжительность : 1 ч. 54 м.
    Вид битрейта : Постоянный
    Битрейт : 384 Кбит/сек
    Каналы : 6 каналов
    Расположение каналов : Front: L C R, Side: L R, LFE
    Частота : 48,0 КГц
    Частота кадров : 31,250 кадров/сек (1536 spf)
    Метод сжатия : С потерями
    Размер потока : 314 Мбайт (3%)
    Язык : Russian
    Default : Да
    Forced : Нет
    Аудио #2
    Идентификатор : 3
    Формат : DTS
    Формат/Информация : Digital Theater Systems
    Режим : 16
    Параметр Endianness формата : Big
    Идентификатор кодека : A_DTS
    Продолжительность : 1 ч. 54 м.
    Вид битрейта : Постоянный
    Битрейт : 1509 Кбит/сек
    Каналы : 6 каналов
    Расположение каналов : Front: L C R, Side: L R, LFE
    Частота : 48,0 КГц
    Частота кадров : 93,750 кадра/сек (512 spf)
    Битовая глубина : 24 бит
    Метод сжатия : С потерями
    Размер потока : 1,21 Гбайт (11%)
    Заголовок : Deutsch DTS 5.1 @ 1510 Kbps
    Язык : German
    Default : Нет
    Forced : Нет
    Текст #1
    Идентификатор : 4
    Формат : UTF-8
    Идентификатор кодека : S_TEXT/UTF8
    Идентификатор кодека/Информация : UTF-8 Plain Text
    Продолжительность : 1 ч. 48 м.
    Битрейт : 67 бит/сек
    Count of elements : 922
    Размер потока : 53,6 Кбайт (0%)
    Язык : Russian
    Default : Нет
    Forced : Нет
    Текст #2
    Идентификатор : 5
    Формат : PGS
    Идентификатор кодека : S_HDMV/PGS
    Идентификатор кодека/Информация : Picture based subtitle format used on BDs/HD-DVDs
    Продолжительность : 1 ч. 53 м.
    Битрейт : 28,6 Кбит/сек
    Count of elements : 2338
    Размер потока : 23,3 Мбайт (0%)
    Заголовок : FULL SDH PGS
    Язык : German
    Default : Нет
    Forced : Нет
    Текст #3
    Идентификатор : 6
    Формат : VobSub
    Идентификатор кодека : S_VOBSUB
    Идентификатор кодека/Информация : Picture based subtitle format used on DVDs
    Продолжительность : 1 ч. 53 м.
    Битрейт : 7216 бит/сек
    Count of elements : 1169
    Размер потока : 5,88 Мбайт (0%)
    Заголовок : FULL SDH VOB
    Язык : German
    Default : Нет
    Forced : Нет
    Меню
    00:00:00.000 : en:00:00:00.000
    00:11:04.417 : en:00:11:04.417
    00:21:08.667 : en:00:21:08.667
    00:31:33.875 : en:00:31:33.875
    00:42:28.625 : en:00:42:28.625
    00:52:22.042 : en:00:52:22.042
    01:02:21.667 : en:01:02:21.667
    01:12:41.417 : en:01:12:41.417
    01:22:20.500 : en:01:22:20.500
    01:31:07.292 : en:01:31:07.292
    01:41:14.167 : en:01:41:14.167
    01:49:28.542 : en:01:49:28.542

    Скриншот c названием фильма

    Скриншоты

    Скачать .torrent

    Скачать торрент-файл бесплатно и на максимальной скорости!

    Как скачивать? · Что такое торрент? · Рейтинг и ограничения

    !ВНИМАНИЕ!
    Сайт не распространяет и не хранит электронные версии произведений, а занимается лишь лишь предоставлением доступа к создаваемому пользователями каталогу ссылок на торрент-файлы, которые содержат только списки хеш-сумм, убедительная просьба с жалобами обращаться напрямую к пользователю. Файлы для обмена на трекере предоставлены пользователями сайта, и администрация не несёт ответственности за их содержание. Просьба не заливать файлы, защищенные авторскими правами, а также файлы нелегального содержания!


    _________________
    [Профиль] [ЛС]
    Показать сообщения:    
    Ответить на тему

    Текущее время: Сегодня, в 23:15

    Часовой пояс: GMT + 2



    Вы не можете начинать темы
    Вы не можете отвечать на сообщения
    Вы не можете редактировать свои сообщения
    Вы не можете удалять свои сообщения
    Вы не можете голосовать в опросах
    Вы не можете прикреплять файлы к сообщениям
    Вы не можете скачивать файлы