BitTorrentTracker PerecTracker.org
BitTorrentTracker PerecTracker.org
    
Регистрация  ·  Вход
 
 · 
Забыли пароль?

  • [ATV3] Несносные леди / Mother\'s Day (Гэрри Маршалл / Garry Marshall) [2016, США, Драма, комедия, WEB-DL, HD (1080p)] DUB

    Ответить на тему
     
    Автор Сообщение

    rechyn

    Создавать темы 15-Июн-2016 13:22

           

    [Цитировать]

    Несносные леди / Mother's Day
    «Не угадаешь, что они выкинут завтра»
    5.975 / 10 5.40 / 10
    -Год выпуска: 2016
    Страна: США
    Жанр: Драма, комедия
    Продолжительность: 01:53:01
    Перевод: Дублированный (iTunes)
    Оригинальная аудиодорожка: Нет
    Cубтитры: Нет
    Режиссёр: Гэрри Маршалл
    Сценарий: Мэттью Уолкер, Том Хайнс, Аня Кочофф
    Продюсер: Брандт Андерсон, Ховард Берд, Дэниэл Даймонд
    Оператор: Чарльз Мински
    Композитор: Джон Дебни
    Художник: Мисси Стюарт, Кристофер Тандон, Мэрлин Вэнс
    Монтаж: Брюс Грин, Роберт Малина
    В ролях: Дженнифер Энистон, Джулия Робертс, Кейт Хадсон, Джейсон Судейкис, Тимоти Олифант, Шэй Митчелл, Калеб Браун, Брэндон Спинк, Сэм Маршалл, Сиена ЛаГамбина
    Бюджет: $25 000 000
    Сборы в США: $32 469 388
    Сборы в России: $1 149 353
    Мировая премьера: 13 апреля 2016
    Премьера (РФ): 28 апреля 2016, «Парадиз»
    Описание: Фитнес и шопинг, капризные предки и непослушные дети, завистливые подружки и надоевшие бывшие — милые составляющие настоящего женского счастья. А также мужского, если ты — отец-одиночка. И неважно, где и как сведет вас жизнь, если ты встретишь настоящую любовь. Главное — не сдаваться! Ведь судьба — это большой супермаркет, а не магазин на диване.-Качество исходника: WEB-DL 1080p (BlueBird)
    Качество: WEB-DL
    Тип: HD (1080p)
    Контейнер: M4V
    Видео: H.264, 1920x1038, 1.85:1, 5 019 Kbps, 25.000 fps
    Аудио 1: Русский/Дублированный (iTunes), AAC / 2.0 / 157 Kbps / 48.0 KHz
    Аудио 2: Русский/Дублированный (iTunes), AC-3 / 5.1 / 384 Kbps / 48.0 KHz
    -

    iTunes Meta Tags

    Sort Name: Mother's Day
    XID: Apple:vendor_id:2016-923901
    contentID: 1101582668
    Copyright: © 2016 Open Road Films. All Rights Reserved.
    Screenwriters: Мэттью Уолкер, Том Хайнс, Аня Кочофф
    Producers: Брандт Андерсон, Ховард Берд, Дэниэл Даймонд
    Director: Гэрри Маршалл
    Cast: Дженнифер Энистон, Джулия Робертс, Кейт Хадсон, Джейсон Судейкис, Тимоти Олифант, Шэй Митчелл, Калеб Браун, Брэндон Спинк, Сэм Маршалл, Сиена ЛаГамбина, Людмила Шувалова, Артем Маликов, Максим Чихачев, Сергей Чихачев, Василиса Эльдарова
    Studio: Open Road Films
    Rating: 4
    Long Description: Фитнес и шопинг, капризные предки и непослушные дети, завистливые подружки и надоевшие бывшие - милые составляющие настоящего женского счастья. А также мужского, если ты - отец-одиночка. И неважно, где и как сведет вас жизнь, если ты встретишь настоящую любовь. Главное - не сдаваться! Ведь судьба - это большой супермаркет, а не магазин на диване.
    Description: Фитнес и шопинг, капризные предки и непослушные дети, завистливые подружки и надоевшие бывшие - милые составляющие настоящего женского счастья. А также мужского, если ты - отец-одиночка. И неважно, где и как сведет вас жизнь, если ты встретишь настоящую любовь. Главное - не сдаваться! Ведь судьба - это большой супермаркет, а не магазин на диване.
    Release Date: 2016-04-13T08:00:00Z
    Genre: Comedy
    Artist: Garry Marshall
    Name: Mother's Day (2016)

    MediaInfo

    General
    Complete name : /Users/imac/HandBrake/Mother's.Day.(2016).WEB-DL.1080p.m4v
    Format : MPEG-4
    Codec ID : M4V
    File size : 4.40 GiB
    Duration : 1h 53mn
    Overall bit rate mode : Variable
    Overall bit rate : 5 568 Kbps
    Movie name : Mother's Day (2016)
    Performer : Garry Marshall
    Director : Гэрри Маршалл
    Actor : Дженнифер Энистон / Джулия Робертс / Кейт Хадсон / Джейсон Судейкис / Тимоти Олифант / Шэй Митчелл / Калеб Браун / Брэндон Спинк / Сэм Маршалл / Сиена ЛаГамбина / Людмила Шувалова / Артем Маликов / Максим Чихачев / Сергей Чихачев / Василиса Эльдарова
    Screenplay by : Мэттью Уолкер / Том Хайнс / Аня Кочофф
    Producer : Брандт Андерсон / Ховард Берд / Дэниэл Даймонд
    Production studio : Open Road Films
    Genre : Comedy
    ContentType : Short Film
    Description : Фитнес и шопинг, капризные предки и непослушные дети, завистливые подружки и надоевшие бывшие - милые составляющие настоящего женского счастья. А также мужского, если ты - отец-одиночка. И неважно, где и как сведет вас жизнь, если ты встретишь настоящую любовь. Главное - не сдаваться! Ведь судьба - это большой супермаркет, а не магазин на диване.
    Recorded date : UTC 2016-04-13 08:00:00
    Encoded date : UTC 2016-06-15 09:53:01
    Tagged date : UTC 2016-06-15 09:56:02
    Copyright : © 2016 Open Road Films. All Rights Reserved.
    Cover : Yes
    Rating : None
    Title/Sort : Mother's Day
    LongDescription : Фитнес и шопинг, капризные предки и непослушные дети, завистливые подружки и надоевшие бывшие - милые составляющие настоящего женского счастья. А также мужского, если ты - отец-одиночка. И неважно, где и как сведет вас жизнь, если ты встретишь настоящую любовь. Главное - не сдаваться! Ведь судьба - это большой супермаркет, а не магазин на диване.
    AppleStoreCatalogID : 1101582668
    Vendor : Apple:vendor_id:2016-923901
    ContentRating : mpaa|PG-13|300|
    Video #1
    ID : 1
    Format : AVC
    Format/Info : Advanced Video Codec
    Format profile : High@L4
    Format settings, CABAC : Yes
    Format settings, ReFrames : 4 frames
    Codec ID : avc1
    Codec ID/Info : Advanced Video Coding
    Duration : 1h 53mn
    Bit rate : 5 019 Kbps
    Width : 1 920 pixels
    Height : 1 038 pixels
    Display aspect ratio : 1.85:1
    Frame rate mode : Constant
    Frame rate : 25.000 fps
    Color space : YUV
    Chroma subsampling : 4:2:0
    Bit depth : 8 bits
    Scan type : Progressive
    Bits/(Pixel*Frame) : 0.101
    Stream size : 3.96 GiB (90%)
    Title : Main Program
    Language : English
    Encoded date : UTC 2016-06-15 09:53:01
    Tagged date : UTC 2016-06-15 09:53:07
    Color range : Limited
    Color primaries : BT.709
    Transfer characteristics : BT.709
    Matrix coefficients : BT.709
    Video #2
    ID : 5
    Format : JPEG
    Codec ID : jpeg
    Duration : 1h 53mn
    Bit rate mode : Variable
    Bit rate : 1 752 bps
    Width : 640 pixels
    Height : 346 pixels
    Display aspect ratio : 1.85:1
    Frame rate mode : Variable
    Frame rate : 0.003 fps
    Minimum frame rate : 0.002 fps
    Maximum frame rate : 0.003 fps
    Color space : YUV
    Chroma subsampling : 4:2:0
    Bit depth : 8 bits
    Compression mode : Lossy
    Bits/(Pixel*Frame) : 2.637
    Stream size : 1.18 MiB (0%)
    Title : Chapter Images
    Language : English
    Encoded date : UTC 2016-06-15 09:53:15
    Tagged date : UTC 2016-06-15 09:53:16
    Audio #1
    ID : 2
    Format : AAC
    Format/Info : Advanced Audio Codec
    Format profile : LC
    Codec ID : 40
    Duration : 1h 53mn
    Bit rate mode : Variable
    Bit rate : 157 Kbps
    Maximum bit rate : 238 Kbps
    Channel(s) : 2 channels
    Channel positions : Front: L R
    Sampling rate : 48.0 KHz
    Compression mode : Lossy
    Stream size : 127 MiB (3%)
    Title : Russian Stereo
    Language : Russian
    Encoded date : UTC 2016-06-15 09:53:01
    Tagged date : UTC 2016-06-15 09:53:09
    Audio #2
    ID : 3
    Format : AC-3
    Format/Info : Audio Coding 3
    Mode extension : CM (complete main)
    Format settings, Endianness : Big
    Codec ID : ac-3
    Duration : 1h 53mn
    Bit rate mode : Constant
    Bit rate : 384 Kbps
    Channel(s) : 6 channels
    Channel positions : Front: L C R, Side: L R, LFE
    Sampling rate : 48.0 KHz
    Bit depth : 16 bits
    Compression mode : Lossy
    Stream size : 310 MiB (7%)
    Title : Russian DD 5.1
    Language : Russian
    Encoded date : UTC 2016-06-15 09:53:01
    Tagged date : UTC 2016-06-15 09:53:07
    Menu #1
    00:00:00.000 : Глава 1
    00:05:12.680 : Глава 2
    00:12:51.800 : Глава 3
    00:18:26.960 : Глава 4
    00:24:00.320 : Глава 5
    00:31:21.160 : Глава 6
    00:36:59.680 : Глава 7
    00:43:05.760 : Глава 8
    00:49:36.800 : Глава 9
    00:56:20.320 : Глава 10
    01:02:03.720 : Глава 11
    01:09:50.080 : Глава 12
    01:15:59.440 : Глава 13
    01:22:03.040 : Глава 14
    01:28:28.640 : Глава 15
    01:35:37.680 : Глава 16
    01:42:43.320 : Глава 17
    Menu #2
    ID : 4
    Codec ID : text
    Duration : 1h 53mn
    Language : English
    Encoded date : UTC 2016-06-15 09:53:09
    Tagged date : UTC 2016-06-15 09:53:09
    00:00:00.000 : Глава 1
    00:05:12.680 : Глава 2
    00:12:51.800 : Глава 3
    00:18:26.960 : Глава 4
    00:24:00.320 : Глава 5
    00:31:21.160 : Глава 6
    00:36:59.680 : Глава 7
    00:43:05.760 : Глава 8
    00:49:36.800 : Глава 9
    00:56:20.320 : Глава 10
    01:02:03.720 : Глава 11
    01:09:50.080 : Глава 12
    01:15:59.440 : Глава 13
    01:22:03.040 : Глава 14
    01:28:28.640 : Глава 15
    01:35:37.680 : Глава 16
    01:42:43.320 : Глава 17
    Bit rate mode : VBR

    Скриншоты

    -

    Релиз подготовлен для просмотра на Apple TV, iPad, iPhone, iPod Touch.
    Для просмотра данного релиза на компьютере с ОС Windows рекомендуется использовать VLC media player
    Скачать .torrent

    Скачать торрент-файл бесплатно и на максимальной скорости!

    Как скачивать? · Что такое торрент? · Рейтинг и ограничения

    !ВНИМАНИЕ!
    Сайт не распространяет и не хранит электронные версии произведений, а занимается лишь лишь предоставлением доступа к создаваемому пользователями каталогу ссылок на торрент-файлы, которые содержат только списки хеш-сумм, убедительная просьба с жалобами обращаться напрямую к пользователю. Файлы для обмена на трекере предоставлены пользователями сайта, и администрация не несёт ответственности за их содержание. Просьба не заливать файлы, защищенные авторскими правами, а также файлы нелегального содержания!


    _________________
    [Профиль] [ЛС]
    Показать сообщения:    
    Ответить на тему

    Текущее время: Сегодня, в 19:20

    Часовой пояс: GMT + 2



    Вы не можете начинать темы
    Вы не можете отвечать на сообщения
    Вы не можете редактировать свои сообщения
    Вы не можете удалять свои сообщения
    Вы не можете голосовать в опросах
    Вы не можете прикреплять файлы к сообщениям
    Вы не можете скачивать файлы