BitTorrentTracker PerecTracker.org
BitTorrentTracker PerecTracker.org
    
Регистрация  ·  Вход
 
 · 
Забыли пароль?

  • Специальный полуночный выпуск / Midnight Special (Джефф Николс / Jeff Nichols) [2016, США, фантастика, триллер, драма, приключения, HDRip] MVO (Paradox & Omskbird records)

    Ответить на тему
     
    Автор Сообщение

    rechyn

    Создавать темы 15-Июн-2016 13:22

           

    [Цитировать]

    Специальный полуночный выпуск / Midnight Special
    Страна: США
    Жанр: фантастика, триллер, драма, приключения
    Год выпуска: 2016
    Продолжительность: 01:51:55
    Перевод: Любительский (многоголосый закадровый) (Paradox & Omskbird records)
    Cубтитры: нет
    Режиссер: Джефф Николс / Jeff Nichols
    В ролях: Майкл Шеннон, Джоэл Эдгертон, Кирстен Данст, Джейден Либерер, Адам Драйвер, Билл Кэмп, Скотт Хэйз, Сэм Шепард
    Описание: Когда Альтон родился, никто не подозревал, что этот долгожданный ребенок будет обладать сверхъестественными способностями. Однако по мере роста сына родители начинают замечать, что он не такой, как другие дети. С ним происходят странные вещи, а его возможности поражают воображение. Однако, не умея их контролировать, мальчик очень быстро привлекает к себе внимание как военных подразделений правительства и ФБР, так и экстремистских организаций. Не желая, чтобы сына отправляли на смертельно опасные задания и использовали его способности для грязных целей, отец принимает решение пуститься с сыном в бега. Их путешествие сопровождается погонями со стрельбой, оно будет полно трудностей и смертельных опасностей. Сможет ли Рой уберечь Альтона от рук злодеев из правительства и террористических организаций, спасти его и самого себя и научить сына контролировать свою силу?
    Сэмпл: http://multi-up.com/1105902
    Качество видео: HDRip
    Формат видео: AVI
    Видео: XviD, 720x304, (2,35:1), 23,976 fps, 740 Кбит/с, 8 бит
    Аудио: Русский (MP3, 2 ch, 48,0 KHz, 128 Kbps)

    MediaInfo

    Общее
    Полное имя : F:\Видеофильмы\Video Rip\Специальный полуночный выпуск.avi
    Формат : AVI
    Формат/Информация : Audio Video Interleave
    Размер файла : 702 Мбайт
    Продолжительность : 1 ч. 51 м.
    Общий поток : 877 Кбит/сек
    Программа кодирования : VirtualDubMod 1.5.10.2 (build 2540/release)
    Библиотека кодирования : VirtualDubMod build 2540/release
    Видео
    Идентификатор : 0
    Формат : MPEG-4 Visual
    Профиль формата : Advanced Simple@L5
    Параметр BVOP формата : 1
    Параметр QPel формата : Нет
    Параметр GMC формата : Без точки перехода
    Параметр матрицы формата : Выборочная
    Идентификатор кодека : XVID
    Идентификатор кодека/Подсказка : XviD
    Продолжительность : 1 ч. 51 м.
    Битрейт : 740 Кбит/сек
    Ширина : 720 пикселей
    Высота : 304 пикселя
    Соотношение сторон : 2,35:1
    Частота кадров : 23,976 (23976/1000) кадра/сек
    Цветовое пространство : YUV
    Субдискретизация насыщенности : 4:2:0
    Битовая глубина : 8 бит
    Тип развёртки : Прогрессивная
    Метод сжатия : С потерями
    Бит/(Пиксели*Кадры) : 0.141
    Размер потока : 592 Мбайт (84%)
    Библиотека кодирования : XviD 1.2.0.dev47 (UTC 2006-11-01)
    Аудио
    Идентификатор : 1
    Формат : MPEG Audio
    Версия формата : Version 1
    Профиль формата : Layer 3
    Идентификатор кодека : 55
    Идентификатор кодека/Подсказка : MP3
    Продолжительность : 1 ч. 51 м.
    Вид битрейта : Постоянный
    Битрейт : 128 Кбит/сек
    Каналы : 2 канала
    Частота : 48,0 КГц
    Метод сжатия : С потерями
    Размер потока : 102 Мбайт (15%)
    Выравнивание : Соединение по промежуткам
    Продолжительность промежутка : 42 мс. (1,00 видеокадр)
    Время предзагрузки промежутка : 504 мс.
    Библиотека кодирования : LAME3.97
    Настройки программы : -m s -V 4 -q 2 -lowpass 17 -b 128

    Скриншот c названием фильма

    Скриншоты

    Скачать .torrent

    Скачать торрент-файл бесплатно и на максимальной скорости!

    Как скачивать? · Что такое торрент? · Рейтинг и ограничения

    !ВНИМАНИЕ!
    Сайт не распространяет и не хранит электронные версии произведений, а занимается лишь лишь предоставлением доступа к создаваемому пользователями каталогу ссылок на торрент-файлы, которые содержат только списки хеш-сумм, убедительная просьба с жалобами обращаться напрямую к пользователю. Файлы для обмена на трекере предоставлены пользователями сайта, и администрация не несёт ответственности за их содержание. Просьба не заливать файлы, защищенные авторскими правами, а также файлы нелегального содержания!


    _________________
    [Профиль] [ЛС]
    Показать сообщения:    
    Ответить на тему

    Текущее время: Сегодня, в 10:17

    Часовой пояс: GMT + 2



    Вы не можете начинать темы
    Вы не можете отвечать на сообщения
    Вы не можете редактировать свои сообщения
    Вы не можете удалять свои сообщения
    Вы не можете голосовать в опросах
    Вы не можете прикреплять файлы к сообщениям
    Вы не можете скачивать файлы