BitTorrentTracker PerecTracker.org
BitTorrentTracker PerecTracker.org
    
Регистрация  ·  Вход
 
 · 
Забыли пароль?

  • Экипаж (Николай Лебедев) [2016, мелодрама, катастрофа, BDRip]

    Ответить на тему
     
    Автор Сообщение

    Flirldrerve

    Создавать темы 15-Июн-2016 01:05

           

    [Цитировать]

    Экипаж
    Жанр: Мелодрама, катастрофа
    Год выпуска: 2016
    Продолжительность: 02:17:12
    Режиссёр: Николай Лебедев
    В ролях: Данила Козловский, Владимир Машков, Агне Грудите, Катерина Шпица, Сергей Газаров, Елена Яковлева, Сергей Шакуров, Вера Иванова, Татьяна Новик, Сергей Кемпо, Алёна Бабенко, Сергей Романович, и др.
    Описание: Молодой и талантливый лётчик Алексей Гущин из-за своего неуступчивого характера не смог удержаться ни в военной, ни в грузовой авиации. Начальство не желает видеть в своих рядах подчинённого, который готов оспаривать приказы, даже если те действительно абсурдны. Наконец, при помощи отца он устраивается на работу в пассажирскую авиакомпанию в экипаж строгого Леонида Зинченко, профессионала, чья дисциплина и неукоснительное следование правилам стали уже легендарными. Роль второго пилота не очень нравится своенравному Гущину, у которого на всё своё мнение, но, тем не менее, пилоты уживаются и начинают спокойно работать.
    Всё было нормально до случая со скандалом на борту, когда Алексей усмирил зарвавшегося VIP-пассажира. Тот оказывается одним из совладельцев компании, и лётчик попадает в опалу. Вместо увольнения, которого удалось избежать по просьбе Зинченко, экипаж отправляют далеко от престижных маршрутов. Их новая задача – возить пассажиров между архипелагами в Тихом океане, где ведутся большие горнопромышленные работы. В один из дней рутинные перелёты прерваны экстренным вызовом – на одном из островов началось сильнейшее извержение вулкана. Чтобы спасти людей от раскалённой лавы, у наших лётчиков есть всего один шанс. Теперь нужно забыть о былых разногласиях, собраться и выполнить всё от них зависящее на пределе своих возможностей.

    Качество видео: BDRip
    Формат видео: AVI
    Видео: XviD 67 MPEG-4, 720x304 (2.35:1) 23.976 fps, ~1005 kbps avg, 0.192 bit/pixel
    Аудио: MP-3 Joint stereo, CBR 128 kbps 2 ch, 48.0 KHz

    MediaInfo

    ОбщееПолное имя : V:\Экипаж_2016_BDRip_[perectracker.org].aviФормат : AVIФормат/Информация : Audio Video InterleaveРазмер файла : 1,10 ГбайтПродолжительность : 2 ч. 17 м.Общий поток : 1143 Кбит/секНазвание фильма : Экипаж_2016_BDRip_[perectracker.org]Режиссёр : OGORODNIKOFFFЖанр : Мелодрама, катастрофаПрограмма кодирования : VirtualDubModRus 1.5.10.2 (build 2542/release)Формат оригинала/Имя : Наше киноПравообладатель : [url=profile.php?mode=viewprofile&u=38116300]http://perectracker.org/profile.php?mode=viewprofil...[/url]Примечание : Рип подготовлен 14 июня 2016 года
    ВидеоИдентификатор : 0Формат : MPEG-4 VisualПрофиль формата : Advanced Simple@L5Параметр BVOP формата : 1Параметр QPel формата : НетПараметр GMC формата : Без точки переходаПараметр матрицы формата : ВыборочнаяИдентификатор кодека : DX50Идентификатор кодека/Подсказка : DivX 5Продолжительность : 2 ч. 17 м.Битрейт : 1005 Кбит/секШирина : 720 пикселейВысота : 304 пикселяСоотношение сторон : 2,35:1Частота кадров : 23,976 кадра/секЦветовое пространство : YUVСубдискретизация насыщенности : 4:2:0Битовая глубина : 8 битТип развёртки : ПрогрессивнаяМетод сжатия : С потерямиБит/(Пиксели*Кадры) : 0.192Размер потока : 987 Мбайт (88%)Библиотека кодирования : XviD 67
    АудиоИдентификатор : 1Формат : MPEG AudioВерсия формата : Version 1Профиль формата : Layer 3Режим : Joint stereoРасширение режима : MS StereoИдентификатор кодека : 55Идентификатор кодека/Подсказка : MP3Продолжительность : 2 ч. 17 м.Вид битрейта : ПостоянныйБитрейт : 128 Кбит/секКаналы : 2 каналаЧастота : 48,0 КГцМетод сжатия : С потерямиЗадержка видео : 24 мс.Размер потока : 126 Мбайт (11%)Выравнивание : Соединение по промежуткамПродолжительность промежутка : 42 мс. (1,00 видеокадр)Время предзагрузки промежутка : 504 мс.Библиотека кодирования : LAME3.99Настройки программы : -m j -V 4 -q 2 -lowpass 17 -b 128

    Скриншот c названием фильма

    Скриншоты

    Скачать .torrent

    Скачать торрент-файл бесплатно и на максимальной скорости!

    Как скачивать? · Что такое торрент? · Рейтинг и ограничения

    !ВНИМАНИЕ!
    Сайт не распространяет и не хранит электронные версии произведений, а занимается лишь лишь предоставлением доступа к создаваемому пользователями каталогу ссылок на торрент-файлы, которые содержат только списки хеш-сумм, убедительная просьба с жалобами обращаться напрямую к пользователю. Файлы для обмена на трекере предоставлены пользователями сайта, и администрация не несёт ответственности за их содержание. Просьба не заливать файлы, защищенные авторскими правами, а также файлы нелегального содержания!


    _________________
    [Профиль] [ЛС]
    Показать сообщения:    
    Ответить на тему

    Текущее время: Сегодня, в 08:57

    Часовой пояс: GMT + 2



    Вы не можете начинать темы
    Вы не можете отвечать на сообщения
    Вы не можете редактировать свои сообщения
    Вы не можете удалять свои сообщения
    Вы не можете голосовать в опросах
    Вы не можете прикреплять файлы к сообщениям
    Вы не можете скачивать файлы