BitTorrentTracker PerecTracker.org
BitTorrentTracker PerecTracker.org
    
Регистрация  ·  Вход
 
 · 
Забыли пароль?

  • Колония Дигнидад / Colonia (Флориан Галленбергер / Florian Gallenberger) [2015, Германия, Люксембург, Франция, триллер, драма, мелодрама, история, BDRemux 1080p] Dub (iTunes) + Sub Eng + Original Eng

    Ответить на тему
     
    Автор Сообщение

    Light

    Создавать темы 15-Июн-2016 01:05

           

    [Цитировать]

    Колония Дигнидад / Colonia (2015)

    Страна: Германия, Люксембург, Франция
    Студия: Fred Films, Iris Productions, Majestic Filmproduktion
    Жанр: триллер, драма, мелодрама, история
    Год выпуска: 2015
    Продолжительность: 01:49:32
    Перевод: Профессиональный(дублированный), iTunes
    Cубтитры: английские
    Оригинальная аудиодорожка: английский
    Режиссер: Флориан Галленбергер / Florian Gallenberger
    В ролях: Эмма Уотсон, Даниэль Брюль, Микаэл Нюквист, Риченда Кэри, Вики Крипс, Джинн Вернер, Джулиан Овенден, Август Цирнер, Мартин Вуттке, Николас Барсофф
    Описание: Немецкий журналист Даниэль похищен в Чили тайной полицией и после немыслимых пыток отправлен в колонию «Дигнидад» — огромное поселение, выдающее себя за благотворительную коммуну, а на самом деле гнездо нацистов — беглецов из Третьего рейха. Колонию возглавляет бывший офицер вермахта, бесноватый проповедник Пауль Шефер, внушающий пастве пользу умерщвления плоти и бесплатного труда от заката до рассвета. В «Дигнидад» легко попасть, но обратной дороги нет. Здесь Даниэлю предстоит превратиться в раба и «материал» для бесчеловечных экспериментов.


    Качество: BDRemux 1080p
    Формат видео: MKV
    Видео: MPEG-4 AVC Video, 21927kbps, 1920x1080, 23.976 fps, 16:9, High Profile 4.1
    Аудио 1:Русский, AC3, 48Khz, 384 kbps, 6 ch
    Аудио2: English, DTS-HD Master Audio / 5.1 / 48 kHz / 3412 kbps / 24-bit (DTS Core: 5.1 / 48 kHz / 1509 kbps / 24-bit )
    Формат субтитров: softsub (SRT)
    Доп. информация о субтитрах:Text #1(Английский, UTF-8), Text #2(Английские, UTF-8)

    MediaInfo

    Общее
    Уникальный идентификатор : 232976891883690123726604393195530282236 (0xAF45B79D3B2B4C5581C9D17452B6E4FC)
    Полное имя : E:\Мои раздачи\Колония(2015).mkv
    Формат : Matroska
    Версия формата : Version 4 / Version 2
    Размер файла : 19,8 Гбайт
    Продолжительность : 1 ч. 49 м.
    Режим общего битрейта : Переменный
    Общий поток : 25,7 Мбит/сек
    Название фильма : Colonia.2015.BDREMUX.1080p.ExKinoRay
    Дата кодирования : UTC 2016-06-08 07:38:02
    Программа кодирования : mkvmerge v8.3.0 ('Over the Horizon') 64bit
    Библиотека кодирования : libebml v1.3.1 + libmatroska v1.4.2
    Видео
    Идентификатор : 1
    Формат : AVC
    Формат/Информация : Advanced Video Codec
    Профиль формата : High@L4.1
    Параметр CABAC формата : Да
    Параметр ReFrames формата : 4 кадра
    Идентификатор кодека : V_MPEG4/ISO/AVC
    Продолжительность : 1 ч. 49 м.
    Вид битрейта : Переменный
    Битрейт : 21,9 Мбит/сек
    Максимальный битрейт : 38,0 Мбит/сек
    Ширина : 1920 пикселей
    Высота : 1080 пикселей
    Соотношение сторон : 16:9
    Режим частоты кадров : Постоянный
    Частота кадров : 23,976 (24000/1001) кадра/сек
    Цветовое пространство : YUV
    Субдискретизация насыщенности : 4:2:0
    Битовая глубина : 8 бит
    Тип развёртки : Прогрессивная
    Бит/(Пиксели*Кадры) : 0.441
    Размер потока : 16,8 Гбайт (85%)
    Заголовок : Colonia.2015.BDREMUX.1080p.ExKinoRay
    Язык : English
    Default : Да
    Forced : Нет
    Аудио #1
    Идентификатор : 2
    Формат : AC-3
    Формат/Информация : Audio Coding 3
    Расширение режима : CM (complete main)
    Параметр Endianness формата : Big
    Идентификатор кодека : A_AC3
    Продолжительность : 1 ч. 49 м.
    Вид битрейта : Постоянный
    Битрейт : 384 Кбит/сек
    Каналы : 6 каналов
    Расположение каналов : Front: L C R, Side: L R, LFE
    Частота : 48,0 КГц
    Частота кадров : 31,250 кадров/сек (1536 spf)
    Метод сжатия : С потерями
    Размер потока : 302 Мбайт (1%)
    Заголовок : DUB [iTunes]
    Язык : Russian
    Default : Да
    Forced : Нет
    Аудио #2
    Идентификатор : 3
    Формат : DTS
    Формат/Информация : Digital Theater Systems
    Профиль формата : MA / Core
    Режим : 16
    Параметр Endianness формата : Big
    Идентификатор кодека : A_DTS
    Продолжительность : 1 ч. 49 м.
    Вид битрейта : Переменный / Постоянный
    Битрейт : 3412 Кбит/сек / 1509 Кбит/сек
    Каналы : 6 каналов
    Расположение каналов : Front: L C R, Side: L R, LFE
    Частота : 48,0 КГц
    Частота кадров : 93,750 кадра/сек (512 spf)
    Битовая глубина : 24 бит
    Метод сжатия : Без потерь / Lossy
    Размер потока : 2,62 Гбайт (13%)
    Заголовок : Original
    Язык : English
    Default : Нет
    Forced : Нет
    Текст #1
    Идентификатор : 4
    Формат : UTF-8
    Идентификатор кодека : S_TEXT/UTF8
    Идентификатор кодека/Информация : UTF-8 Plain Text
    Продолжительность : 1 ч. 42 м.
    Битрейт : 33 бит/сек
    Count of elements : 1094
    Размер потока : 25,4 Кбайт (0%)
    Язык : English
    Default : Нет
    Forced : Нет
    Текст #2
    Идентификатор : 5
    Формат : UTF-8
    Идентификатор кодека : S_TEXT/UTF8
    Идентификатор кодека/Информация : UTF-8 Plain Text
    Продолжительность : 1 ч. 43 м.
    Битрейт : 40 бит/сек
    Count of elements : 1019
    Размер потока : 30,5 Кбайт (0%)
    Заголовок : SDH
    Язык : English
    Default : Нет
    Forced : Нет

    Скриншот с названием фильма

    Скриншоты






    Скачать .torrent

    Скачать торрент-файл бесплатно и на максимальной скорости!

    Как скачивать? · Что такое торрент? · Рейтинг и ограничения

    !ВНИМАНИЕ!
    Сайт не распространяет и не хранит электронные версии произведений, а занимается лишь лишь предоставлением доступа к создаваемому пользователями каталогу ссылок на торрент-файлы, которые содержат только списки хеш-сумм, убедительная просьба с жалобами обращаться напрямую к пользователю. Файлы для обмена на трекере предоставлены пользователями сайта, и администрация не несёт ответственности за их содержание. Просьба не заливать файлы, защищенные авторскими правами, а также файлы нелегального содержания!


    _________________
    [Профиль] [ЛС]
    Показать сообщения:    
    Ответить на тему

    Текущее время: Сегодня, в 22:22

    Часовой пояс: GMT + 2



    Вы не можете начинать темы
    Вы не можете отвечать на сообщения
    Вы не можете редактировать свои сообщения
    Вы не можете удалять свои сообщения
    Вы не можете голосовать в опросах
    Вы не можете прикреплять файлы к сообщениям
    Вы не можете скачивать файлы