BitTorrentTracker PerecTracker.org
BitTorrentTracker PerecTracker.org
    
Регистрация  ·  Вход
 
 · 
Забыли пароль?

  • В поисках Немо / Finding Nemo (Эндрю Стэнтон / Andrew Stanton, Ли Анкрич / Lee Unkrich) [2003, США, Мультфильм, комедия, приключения, семейный, BDRip] Dub

    Ответить на тему
     
    Автор Сообщение

    Flirldrerve

    Создавать темы 15-Июн-2016 01:05

           

    [Цитировать]

    В поисках Немо / Finding Nemo-Год выхода: 2003
    Выпущено: США / Walt Disney Pictures, Pixar Animation Studios
    Жанр: мультфильм, комедия, приключения, семейный
    Продолжительность: 01:40:53
    Перевод: Профессиональный (полное дублирование) BD CEE |Лицензия|
    Cубтитры: нет-Режиссер:
    Эндрю Стэнтон / Andrew Stanton, Ли Анкрич / Lee Unkrich-В ролях:
    Альберт Брукс (Marlin, озвучка), Эллен ДеДженерес (Dory, озвучка), Александр Гулд (Nemo, озвучка), Уиллем Дефо (Gill, озвучка), Брэд Гэррет (Bloat, озвучка), Эллисон Джэнни (Peach, озвучка), Остин Пендлтон (Gurgle, озвучка), Стивен Рут (Bubbles, озвучка), Викки Льюис (Deb, Flo, озвучка), Джо Рэнфт (Jacques, озвучка), Джеффри Раш (Nigel, озвучка), Эндрю Стэнтон (Crush, озвучка)-Дублёры:
    Ян Цапник (Marlin), Елена Шульман (Dory), Федор Машанов (Nemo), Виктор Костецкий (Gill), Алексей Гурьев (Bloat), Мария Кузнецова (Peach), Валерий Захарьев (Gurgle), Роман Рязанцев (Bubbles), Светлана Репетина (Deb, Flo), Сергей Паршин (Jacques), Владимир Маслаков (Nigel), Валерий Кухарешин (Crush)-О фильме:
    Среди прекрасных тропических морских стихий, в районе Большого барьерного рифа в уединении живет рыба-клоун по имени Марлин. Он растит своего единственного сыночка Немо. Океан и существующие в нем опасности очень страшат Марлина, и он как может ограждает сына от них, но молодой Немо, страдающий излишним любопытством, очень хочет разузнать побольше о таинственном рифе, рядом с которым они живут. Когда Немо по иронии судьбы оказывается вдалеке от дома, да и еще сталкивается с угрозой стать обедом рыбы-танка, Марлин отправляется на поиски сына. Но Марлин, конечно же, понимает, что героический спасатель из него не получится и просит о помощи в поисках, Дори, королевскую синюю рыбу, которая хоть и страдает от того, что почти ничего не помнит, но добрее ее не отыскать во всем безбрежном океане! Итак, наши герои отправляются в путешествие, в котором их подкарауливают многочисленные трудности и опасности…-Релиз групп
    | | IMDB | КиноПоиск | Сэмпл |-Качество: BDRip [BDRemux]
    Формат: AVI
    Видео: 704x400 (1.76:1), 23.976 fps, XviD build 67 ~1675 kbps avg, 0.25 bit/pixel
    Аудио: 48 kHz, AC3 Dolby Digital, 3/2 (L,C,R,l,r) + LFE ch, ~384.00 kbps avg-

    Скриншоты

    -

    MediaInfo

    Общее
    Полное имя                               : D:\V_poiskah_Nemo_2003_BDRip_by_Dalemake.avi
    Формат                                   : AVI
    Формат/Информация                        : Audio Video Interleave
    Размер файла                             : 1,46 Гбайт
    Продолжительность                        : 1 ч. 40 м.
    Общий поток                              : 2069 Кбит/сек
    Программа кодирования                    : VirtualDubMod 1.5.10.3 | www.virtualdub-fr.org || (build 2550/release)
    Библиотека кодирования                   : VirtualDubMod build 2550/release
    Видео
    Идентификатор                            : 0
    Формат                                   : MPEG-4 Visual
    Профиль формата                          : Advanced Simple@L5
    Параметр BVOP формата                    : 1
    Параметр QPel формата                    : Нет
    Параметр GMC формата                     : Без точки перехода
    Параметр матрицы формата                 : Выборочная
    Идентификатор кодека                     : XVID
    Идентификатор кодека/Подсказка           : XviD
    Продолжительность                        : 1 ч. 40 м.
    Битрейт                                  : 1675 Кбит/сек
    Ширина                                   : 704 пикселя
    Высота                                   : 400 пикселей
    Соотношение сторон                       : 16:9
    Частота кадров                           : 23,976 кадра/сек
    Цветовое пространство                    : YUV
    Субдискретизация насыщенности            : 4:2:0
    Битовая глубина                          : 8 бит
    Тип развёртки                            : Прогрессивная
    Метод сжатия                             : С потерями
    Бит/(Пиксели*Кадры)                      : 0.248
    Размер потока                            : 1,18 Гбайт (81%)
    Библиотека кодирования                   : XviD 67
    Аудио
    Идентификатор                            : 1
    Формат                                   : AC-3
    Формат/Информация                        : Audio Coding 3
    Расширение режима                        : CM (complete main)
    Параметр Endianness формата              : Big
    Идентификатор кодека                     : 2000
    Продолжительность                        : 1 ч. 40 м.
    Вид битрейта                             : Постоянный
    Битрейт                                  : 384 Кбит/сек
    Каналы                                   : 6 каналов
    Расположение каналов                     : Front: L C R, Side: L R, LFE
    Частота                                  : 48,0 КГц
    Битовая глубина                          : 16 бит
    Метод сжатия                             : С потерями
    Размер потока                            : 277 Мбайт (19%)
    Выравнивание                             : Разделение по промежуткам
    Продолжительность промежутка             : 42  мс. (1,00 видеокадр)
    Время предзагрузки промежутка            : 500  мс.

    Сравнение

    http://perectracker.org/http://perectracker.org/viewtopic.php?t=4527503
    http://screenshotcomparison.com/comparison/175730 - видео
    http://screenshotcomparison.com/comparison/175731 - аудио (странный спектр для указанных параметров...)
    -
    Скачать .torrent

    Скачать торрент-файл бесплатно и на максимальной скорости!

    Как скачивать? · Что такое торрент? · Рейтинг и ограничения

    !ВНИМАНИЕ!
    Сайт не распространяет и не хранит электронные версии произведений, а занимается лишь лишь предоставлением доступа к создаваемому пользователями каталогу ссылок на торрент-файлы, которые содержат только списки хеш-сумм, убедительная просьба с жалобами обращаться напрямую к пользователю. Файлы для обмена на трекере предоставлены пользователями сайта, и администрация не несёт ответственности за их содержание. Просьба не заливать файлы, защищенные авторскими правами, а также файлы нелегального содержания!


    _________________
    [Профиль] [ЛС]
    Показать сообщения:    
    Ответить на тему

    Текущее время: Сегодня, в 12:04

    Часовой пояс: GMT + 2



    Вы не можете начинать темы
    Вы не можете отвечать на сообщения
    Вы не можете редактировать свои сообщения
    Вы не можете удалять свои сообщения
    Вы не можете голосовать в опросах
    Вы не можете прикреплять файлы к сообщениям
    Вы не можете скачивать файлы