BitTorrentTracker PerecTracker.org
BitTorrentTracker PerecTracker.org
    
Регистрация  ·  Вход
 
 · 
Забыли пароль?

  • Волчье солнце / Сезон: 1 / Серии: 1-12 из 12 (Сергей Гинзбург) [2014, драма, приключения, SATRip]

    Ответить на тему
     
    Автор Сообщение

    rechyn

    Создавать темы 14-Июн-2016 21:52

           

    [Цитировать]

    Волчье солнце

    Год выпуска: 2014
    Производство: Star Media, "Беларусьфильм"
    Жанр: драма, приключения
    Продолжительность: 00:50:00
    Субтитры: нет
    Режиссёр: Сергей Гинзбург
    В ролях: Гела Месхи, Андрей Мерзликин, Владимир Ильин, Александр Робак, Екатерина Климова, Ян Анджей Фрич, Софья Каштанова, Сергей Годин, Максим Лагашкин, Магдалена Ружанська, Павел Трубинер, Игорь Хрипунов, Ольга Красько, Сергей Чирков, Эва Шикульска, Сергей Шарифуллин, Игорь Арташонов, Игорь Пазыч
    Описание: 1924 год. Молодому чекисту Михаилу Останину удается раздобыть сверхважную информацию: через два месяца на территорию СССР начнется вторжение белоэмигрантских войск, подготовленное Британской разведкой. Руководство ОГПУ НКВД ставит перед Останиным почти невыполнимую задачу - предотвратить нападение, став доверенным лицом генерала Ромовского, командующего операцией и будущего Верховного правителя захваченных территорий в Советской Белоруссии и Украине. Останин проникает на территорию Польши, где сосредоточены войска Ромовского, действуя под именем своего друга детства Януша Галецкого, поляка, белого офицера, погибшего в боях с красными на юге России...
    Все раздачи сериала:
    Волчье солнце

    Качество: SATRip
    Формат: AVI
    Видео кодек: XviD
    Аудио кодек: MP3
    Видео: MPEG-4 Visual, ~1350 Кбит/сек, 704х368, 25 кадр/с, 0,205 bit/pixel
    Аудио: MP3, 48 kHz, 2 ch, 192 Кбит/с

    MI

    Общее
    Полное имя                               : C:\otkat\Видео\Волчье солнце\Volchje.solnce.01.SATRip.avi
    Формат                                   : AVI
    Формат/Информация                        : Audio Video Interleave
    Размер файла                             : 494 Мбайт
    Продолжительность                        : 45 м.
    Общий поток                              : 1532 Кбит/сек
    Программа кодирования                    : VirtualDubModRus 1.5.10.2 (build 2542/release)
    Библиотека кодирования                   : VirtualDubMod build 2542/release
    Видео
    Идентификатор                            : 0
    Формат                                   : MPEG-4 Visual
    Профиль формата                          : Advanced Simple@L5
    Параметр BVOP формата                    : 1
    Параметр QPel формата                    : Нет
    Параметр GMC формата                     : Без точки перехода
    Параметр матрицы формата                 : Default (MPEG)
    Идентификатор кодека                     : XVID
    Идентификатор кодека/Подсказка           : XviD
    Продолжительность                        : 45 м.
    Битрейт                                  : 1330 Кбит/сек
    Ширина                                   : 704 пикселя
    Высота                                   : 368 пикселей
    Соотношение сторон                       : 1,913
    Частота кадров                           : 25,000 кадров/сек
    Цветовое пространство                    : YUV
    Субдискретизация насыщенности            : 4:2:0
    Битовая глубина                          : 8 бит
    Тип развёртки                            : Прогрессивная
    Метод сжатия                             : С потерями
    Бит/(Пиксели*Кадры)                      : 0.205
    Размер потока                            : 429 Мбайт (87%)
    Библиотека кодирования                   : XviD 1.2.1 (UTC 2008-12-04)
    Аудио
    Идентификатор                            : 1
    Формат                                   : MPEG Audio
    Версия формата                           : Version 1
    Профиль формата                          : Layer 3
    Режим                                    : Joint stereo
    Идентификатор кодека                     : 55
    Идентификатор кодека/Подсказка           : MP3
    Продолжительность                        : 45 м.
    Вид битрейта                             : Постоянный
    Битрейт                                  : 192 Кбит/сек
    Каналы                                   : 2 канала
    Частота                                  : 48,0 КГц
    Метод сжатия                             : С потерями
    Размер потока                            : 61,9 Мбайт (13%)
    Выравнивание                             : Соединение по промежуткам
    Продолжительность промежутка             : 40  мс. (1,00 видеокадр)
    Время предзагрузки промежутка            : 504  мс.
    Библиотека кодирования                   : LAME3.99r
    Настройки программы                      : -m j -V 4 -q 2 -lowpass 18.6 -b 192

    Скриншоты

    Скачать .torrent

    Скачать торрент-файл бесплатно и на максимальной скорости!

    Как скачивать? · Что такое торрент? · Рейтинг и ограничения

    !ВНИМАНИЕ!
    Сайт не распространяет и не хранит электронные версии произведений, а занимается лишь лишь предоставлением доступа к создаваемому пользователями каталогу ссылок на торрент-файлы, которые содержат только списки хеш-сумм, убедительная просьба с жалобами обращаться напрямую к пользователю. Файлы для обмена на трекере предоставлены пользователями сайта, и администрация не несёт ответственности за их содержание. Просьба не заливать файлы, защищенные авторскими правами, а также файлы нелегального содержания!


    _________________
    [Профиль] [ЛС]
    Показать сообщения:    
    Ответить на тему

    Текущее время: Сегодня, в 20:45

    Часовой пояс: GMT + 2



    Вы не можете начинать темы
    Вы не можете отвечать на сообщения
    Вы не можете редактировать свои сообщения
    Вы не можете удалять свои сообщения
    Вы не можете голосовать в опросах
    Вы не можете прикреплять файлы к сообщениям
    Вы не можете скачивать файлы