BitTorrentTracker PerecTracker.org
BitTorrentTracker PerecTracker.org
    
Регистрация  ·  Вход
 
 · 
Забыли пароль?

  • Найти мужа в большом городе (Брак по-русски) / Серии: 1-4 из 4 (Екатерина Шагалова) [2013, мелодрама, HDTV (1080i)]

    Ответить на тему
     
    Автор Сообщение

    rechyn

    Создавать темы 14-Июн-2016 21:38

           

    [Цитировать]

    Найти мужа в большом городе (Брак по-русски)--Год выпуска: 2013
    Производство: "Группа компаний «GP»"
    Жанр: мелодрама
    Продолжительность: 00:50:00
    Субтитры: нет-Режиссёр: Екатерина Шагалова-В ролях:
    Алиса Хазанова, Ярослав Бойко, Любовь Толкалина, Вениамин Смехов, Татьяна Лютаева, Юлия Сорокина, Агния Кузнецова, Кирилл Гребенщиков, Ирина Рахманова, Игнат Акрачков, Елена Фомина, Анна Капалева, Алексей Колубков, Роман Хардиков, Глеб Подгородинский, Анна Чурина, Наталья Щербакова, Олег Тополянский-Описание:
    Это история молодой переводчицы Лизы, у которой как-то не получается выйти замуж. Женихов вроде бы предостаточно. Но нет одного единственного… Решение проблемы берет на себя пробивная подруга Маша. Она только не советует Лизе «западать» на преуспевающего архитектора Малышева — «не твой формат». Но этот недостижимый Малышев и нравится Лизе больше всех.-Все раздачи сериала-Возраст: 16+-Качество: HDTV (1080i)
    Формат: TS
    Видео кодек: AVC
    Аудио кодек: AC3, MP2

    Видео: AVC, 1920 х 1080 (16:9), 25,000 кадр/сек, 6 655 Кбит/сек, 0.128 bit/pixel
    Аудио 1: AC3, 48000 Hz, 384 Kbps, 6 каналов
    Аудио 2: MP2, 48000 Hz, 192 Kbps, 2 канала
    -

    MediaInfo

    General
    ID : 1 (0x1)
    Complete name : D:\Раздачи\Найти мужа в большом городе (Брак по-русски) (1-4 серии из 4) HDTV (1080i)\Najti muzha v bol'shom gorode.02.HDTV(1080i).GeneralFilm.ts
    Format : MPEG-TS
    File size : 2.62 GiB
    Duration : 49mn 15s
    Overall bit rate mode : Variable
    Overall bit rate : 7 613 Kbps
    Video
    ID : 4121 (0x1019)
    Menu ID : 80 (0x50)
    Format : AVC
    Format/Info : Advanced Video Codec
    Format profile : Main@L4
    Format settings, CABAC : Yes
    Format settings, ReFrames : 3 frames
    Format settings, GOP : M=4, N=32
    Codec ID : 27
    Duration : 49mn 15s
    Bit rate : 6 655 Kbps
    Width : 1 920 pixels
    Height : 1 080 pixels
    Display aspect ratio : 16:9
    Frame rate : 25.000 fps
    Standard : Component
    Color space : YUV
    Chroma subsampling : 4:2:0
    Bit depth : 8 bits
    Scan type : Interlaced
    Scan type, store method : Separated fields
    Scan order : Top Field First
    Bits/(Pixel*Frame) : 0.128
    Stream size : 2.29 GiB (87%)
    Color range : Limited
    Color primaries : BT.709
    Transfer characteristics : BT.709
    Matrix coefficients : BT.709
    Audio #1
    ID : 4124 (0x101C)
    Menu ID : 80 (0x50)
    Format : AC-3
    Format/Info : Audio Coding 3
    Mode extension : CM (complete main)
    Format settings, Endianness : Big
    Codec ID : 6
    Duration : 49mn 15s
    Bit rate mode : Constant
    Bit rate : 384 Kbps
    Channel(s) : 6 channels
    Channel positions : Front: L C R, Side: L R, LFE
    Sampling rate : 48.0 KHz
    Frame rate : 31.250 fps (1536 spf)
    Compression mode : Lossy
    Stream size : 135 MiB (5%)
    Language : Russian
    Audio #2
    ID : 4125 (0x101D)
    Menu ID : 80 (0x50)
    Format : MPEG Audio
    Format version : Version 1
    Format profile : Layer 2
    Codec ID : 3
    Duration : 49mn 15s
    Bit rate mode : Constant
    Bit rate : 192 Kbps
    Channel(s) : 2 channels
    Sampling rate : 48.0 KHz
    Compression mode : Lossy
    Stream size : 67.6 MiB (3%)
    Language : Russian
    -

    Скриншоты сериала


    -
    Скачать .torrent

    Скачать торрент-файл бесплатно и на максимальной скорости!

    Как скачивать? · Что такое торрент? · Рейтинг и ограничения

    !ВНИМАНИЕ!
    Сайт не распространяет и не хранит электронные версии произведений, а занимается лишь лишь предоставлением доступа к создаваемому пользователями каталогу ссылок на торрент-файлы, которые содержат только списки хеш-сумм, убедительная просьба с жалобами обращаться напрямую к пользователю. Файлы для обмена на трекере предоставлены пользователями сайта, и администрация не несёт ответственности за их содержание. Просьба не заливать файлы, защищенные авторскими правами, а также файлы нелегального содержания!


    _________________
    [Профиль] [ЛС]
    Показать сообщения:    
    Ответить на тему

    Текущее время: Сегодня, в 20:29

    Часовой пояс: GMT + 2



    Вы не можете начинать темы
    Вы не можете отвечать на сообщения
    Вы не можете редактировать свои сообщения
    Вы не можете удалять свои сообщения
    Вы не можете голосовать в опросах
    Вы не можете прикреплять файлы к сообщениям
    Вы не можете скачивать файлы