BitTorrentTracker PerecTracker.org
BitTorrentTracker PerecTracker.org
    
Регистрация  ·  Вход
 
 · 
Забыли пароль?

  • Охота на гауляйтера / Серии: 1-10 из 10 (Олег Базилов) [2012, драма, военный фильм, WEBRip]

    Ответить на тему
     
    Автор Сообщение

    rechyn

    Создавать темы 14-Июн-2016 21:34

           

    [Цитировать]

    Охота на гауляйтера

    Год выпуска: 2012
    Производство: Беларусьфильм, Star Media
    Жанр: драма, военный фильм
    Продолжительность: 00:50:00
    Субтитры: нет
    Режиссёр: Олег Базилов
    В ролях: Анастасия Заворотнюк, Мария Машкова, Александр Дьяченко, Ирина Бякова, Борис Галкин, Андрей Межулис, Сергей Белякович, Уве Йеллинек, Дирк Мартенс, Урсула Готтвальд, Кристин Кляйн, Нильс Неллессен, Людмила Чурсина
    Описание: Минск. 1970 год. На торжественном заседании, посвященном награждению комсомольцев орденом Ленина, неожиданно для всех прямо на сцене друг на друга яростно набрасываются две почетные гостьи Галина Помазан и Мария Архипова. В годы войны они обе были партизанками и получили звание героя Советского Союза за операцию по ликвидации гауляйтера Белоруссии Вильгельма Краубэ. За сухими строчками официальной версии ликвидации гауляйтера стоят судьбы двух совершенно разных женщин, чьи жизни навсегда изменила война.
    В сюжете многосерийного фильма «Охота на гауляйтера» переплетены исторический роман, военно-психологическая драма и любовные линии на фоне борьбы партизанского подполья с фашистской оккупацией Белоруссии.
    Доп. информация: реклама отсутствует
    Все раздачи сериала:
    Охота на гауляйтера

    Качество: WEBRip
    Формат: AVI
    Видео кодек: XviD
    Аудио кодек: AC3
    Видео: MPEG-4 Visual, ~1700 Кбит/сек, 720х400, 25 кадр/с, 0,235 bit/pixel
    Аудио: АС3, 44,1 kHz, 2 ch, 192 Кбит/с

    MI

    Общее
    Полное имя                               : C:\otkat\Видео\Охота на гауляйтера.avi
    Формат                                   : AVI
    Формат/Информация                        : Audio Video Interleave
    Размер файла                             : 700 Мбайт
    Продолжительность                        : 51 м.
    Общий поток                              : 1897 Кбит/сек
    Программа кодирования                    : VirtualDubMod 1.5.10.3 | www.virtualdub-fr.org || (build 2550/release)
    Библиотека кодирования                   : VirtualDubMod build 2550/release
    Видео
    Идентификатор                            : 0
    Формат                                   : MPEG-4 Visual
    Профиль формата                          : Advanced Simple@L5
    Параметр BVOP формата                    : 1
    Параметр QPel формата                    : Нет
    Параметр GMC формата                     : Без точки перехода
    Параметр матрицы формата                 : Default (MPEG)
    Идентификатор кодека                     : XVID
    Идентификатор кодека/Подсказка           : XviD
    Продолжительность                        : 51 м.
    Битрейт                                  : 1695 Кбит/сек
    Ширина                                   : 720 пикселей
    Высота                                   : 400 пикселей
    Соотношение сторон                       : 16:9
    Частота кадров                           : 25,000 кадров/сек
    Цветовое пространство                    : YUV
    Субдискретизация насыщенности            : 4:2:0
    Битовая глубина                          : 8 бит
    Тип развёртки                            : Прогрессивная
    Метод сжатия                             : С потерями
    Бит/(Пиксели*Кадры)                      : 0.235
    Размер потока                            : 626 Мбайт (89%)
    Библиотека кодирования                   : XviD 64
    Аудио
    Идентификатор                            : 1
    Формат                                   : AC-3
    Формат/Информация                        : Audio Coding 3
    Расширение режима                        : CM (complete main)
    Параметр Endianness формата              : Big
    Идентификатор кодека                     : 2000
    Продолжительность                        : 51 м.
    Вид битрейта                             : Постоянный
    Битрейт                                  : 192 Кбит/сек
    Каналы                                   : 2 канала
    Расположение каналов                     : Front: L R
    Частота                                  : 44,1 КГц
    Частота кадров                           : 28,711 кадров/сек (1536 spf)
    Метод сжатия                             : С потерями
    Размер потока                            : 70,9 Мбайт (10%)
    Выравнивание                             : Разделение по промежуткам
    Продолжительность промежутка             : 40  мс. (1,00 видеокадр)
    Время предзагрузки промежутка            : 500  мс.

    Скриншоты

    Скачать .torrent

    Скачать торрент-файл бесплатно и на максимальной скорости!

    Как скачивать? · Что такое торрент? · Рейтинг и ограничения

    !ВНИМАНИЕ!
    Сайт не распространяет и не хранит электронные версии произведений, а занимается лишь лишь предоставлением доступа к создаваемому пользователями каталогу ссылок на торрент-файлы, которые содержат только списки хеш-сумм, убедительная просьба с жалобами обращаться напрямую к пользователю. Файлы для обмена на трекере предоставлены пользователями сайта, и администрация не несёт ответственности за их содержание. Просьба не заливать файлы, защищенные авторскими правами, а также файлы нелегального содержания!


    _________________
    [Профиль] [ЛС]
    Показать сообщения:    
    Ответить на тему

    Текущее время: Сегодня, в 18:23

    Часовой пояс: GMT + 2



    Вы не можете начинать темы
    Вы не можете отвечать на сообщения
    Вы не можете редактировать свои сообщения
    Вы не можете удалять свои сообщения
    Вы не можете голосовать в опросах
    Вы не можете прикреплять файлы к сообщениям
    Вы не можете скачивать файлы